Бегущий в лабиринте / The Maze Runner (Уэс Болл / Wes Ball) [2014, Фантастика, боевик, триллер, детектив, BDRip-AVC][HQCLUB] | Лицензия

Киноновинки, новинки кинопроката, горячие новинки

Модератор: Модераторы видео

  • Статистика раздачи
Размер: 3.21 ГБ   |  Зарегистрирован: 18 дек 2014, 15:58   |   .torrent скачан: 1273 раз
Сидеров: 123  [ 0 байт/сек ]     Личеров: 3  [ 0 байт/сек ]  
Список файлов : Кто скачал : Раздают : Скачивают : Кто благодарил : История : Не раздающие : Запрашивали сидеров : Внешние трекеры 
  

Бегущий в лабиринте / The Maze Runner (Уэс Болл / Wes Ball) [2014, Фантастика, боевик, триллер, детектив, BDRip-AVC][HQCLUB] | Лицензия

Сообщение FaNaTiK » 18 дек 2014, 15:58

Бегущий в лабиринте / The Maze Runner


Год выпуска: 2014
Жанр: Фантастика, боевик, триллер, детектив
Выпущено: США, Великобритания, Канада, 20th Century Fox, Dayday Films, Gotham Group, The, Ingenious Media, Temple Hill Entertainment, TSG Entertainment
Продолжительность: 01:53:26
Озвучивание: Профессиональный (полное дублирование), BD EUR
Субтитры: Русские (полные), Украинские (полные), английские (полные, полные SDH)


Режиссер: Уэс Болл / Wes Ball
В ролях: Дилан О’Брайэн, Кая Скоделарио, Уилл Поултер, Томас Сэнгстер, Патришия Кларксон, Ки Хонг Ли, Амл Амин, Блейк Купер, Крис Шеффилд, Карл Грин


О фильме: Главный герой — подросток Томас, который просыпается в лифте, но ничего не помнит, кроме своего имени. Он оказывается среди 60 подростков, научившихся выживать в замкнутом пространстве. Раз в 30 дней прибывает новый мальчик. Группа ребят проживает в «Приюте» уже два года. Они кормятся тем, что удается вырастить на земле, и пытаются найти выход из лабиринта, окружающего их место жительства. Но однажды появляется девочка в состоянии комы…





Формат: MKV
Качество: BDRip-AVC
Видео: 1152x480 (2.40:1), 23.976 fps, MPEG-4 AVC, ~3073 kbps avg, 0.232 bit/pixel
Аудио #1: 48 kHz, AC3 Dolby Digital, 3/2 (L,C,R,l,r) + LFE ch, ~448 kbps avg (DUB)
Аудио #2: 48 kHz, AC3 Dolby Digital, 3/2 (L,C,R,l,r) + LFE ch, ~448 kbps avg (ENG)

Уникальный идентификатор : 241409850108270773297060324494861963242 (0xB59DD88E2BBE033AABEF5ED991A48FEA)
Полное имя : The.Maze.Runner.2014.DUAL.BDRip-AVC.x264.AC3.-HQCLUB.mkv
Формат : Matroska
Версия формата : Version 2
Размер файла : 3,21 Гбайт
Продолжительность : 1 ч. 53 м.
Общий поток : 4049 Кбит/сек
Дата кодирования : UTC 2014-12-17 23:38:13
Программа кодирования : mkvmerge v5.2.0 ('I can't explain') built on Dec 18 2011 18:12:03
Библиотека кодирования : libebml v1.2.3 + libmatroska v1.3.0

Видео
Идентификатор : 1
Формат : AVC
Формат/Информация : Advanced Video Codec
Профиль формата : High@L4.1
Параметр CABAC формата : Да
Параметр ReFrames формата : 13 кадров
Идентификатор кодека : V_MPEG4/ISO/AVC
Продолжительность : 1 ч. 53 м.
Битрейт : 3073 Кбит/сек
Ширина : 1152 пикселя
Высота : 480 пикселей
Соотношение сторон : 2,40:1
Режим частоты кадров : Постоянный
Частота кадров : 23,976 кадра/сек
Цветовое пространство : YUV
Субдискретизация насыщенности : 4:2:0
Битовая глубина : 8 бит
Тип развёртки : Прогрессивная
Бит/(Пиксели*Кадры) : 0.232
Размер потока : 2,43 Гбайт (76%)
Заголовок : Бегущий в лабиринте / The Maze Runner (2014) BDRip-AVC by HQCLUB [Elheym]
Библиотека кодирования : x264 core 142 r2491kMod 24e4fed
Настройки программы : cabac=1 / ref=13 / deblock=1:-3:-2 / analyse=0x3:0x133 / me=umh / subme=11 / psy=1 / fade_compensate=0.00 / psy_rd=1.00:0.00 / mixed_ref=1 / me_range=32 / chroma_me=1 / trellis=2 / 8x8dct=1 / cqm=0 / deadzone=21,11 / fast_pskip=1 / chroma_qp_offset=-4 / threads=5 / lookahead_threads=1 / sliced_threads=0 / nr=0 / decimate=1 / interlaced=0 / bluray_compat=0 / constrained_intra=0 / fgo=0 / bframes=11 / b_pyramid=2 / b_adapt=2 / b_bias=0 / direct=3 / weightb=1 / open_gop=0 / weightp=2 / keyint=230 / keyint_min=23 / scenecut=40 / intra_refresh=0 / rc_lookahead=40 / rc=crf / mbtree=0 / crf=16.6000 / qcomp=0.70 / qpmin=0 / qpmax=69 / qpstep=4 / vbv_maxrate=50000 / vbv_bufsize=62500 / crf_max=0.0 / nal_hrd=none / filler=0 / ip_ratio=1.40 / pb_ratio=1.30 / aq=3:0.90 / zones=156200,163199,q=34
Язык : English
Default : Да
Forced : Нет

Аудио #1
Идентификатор : 2
Формат : AC-3
Формат/Информация : Audio Coding 3
Расширение режима : CM (complete main)
Параметр Endianness формата : Big
Идентификатор кодека : A_AC3
Продолжительность : 1 ч. 53 м.
Вид битрейта : Постоянный
Битрейт : 448 Кбит/сек
Каналы : 6 каналов
Расположение каналов : Front: L C R, Side: L R, LFE
Частота : 48,0 КГц
Битовая глубина : 16 бит
Метод сжатия : С потерями
Размер потока : 364 Мбайт (11%)
Заголовок : АС3 5.1 @ 448 kbps - Dub, BD EUR
Язык : Russian
Default : Нет
Forced : Нет

Аудио #2
Идентификатор : 3
Формат : AC-3
Формат/Информация : Audio Coding 3
Расширение режима : CM (complete main)
Параметр Endianness формата : Big
Идентификатор кодека : A_AC3
Продолжительность : 1 ч. 53 м.
Вид битрейта : Постоянный
Битрейт : 448 Кбит/сек
Каналы : 6 каналов
Расположение каналов : Front: L C R, Side: L R, LFE
Частота : 48,0 КГц
Битовая глубина : 16 бит
Метод сжатия : С потерями
Размер потока : 364 Мбайт (11%)
Заголовок : АС3 5.1 @ 448 kbps - Original
Язык : English
Default : Нет
Forced : Нет

Текст #1
Идентификатор : 4
Формат : UTF-8
Идентификатор кодека : S_TEXT/UTF8
Идентификатор кодека/Информация : UTF-8 Plain Text
Заголовок : Full
Язык : Russian
Default : Нет
Forced : Нет

Текст #2
Идентификатор : 5
Формат : UTF-8
Идентификатор кодека : S_TEXT/UTF8
Идентификатор кодека/Информация : UTF-8 Plain Text
Заголовок : Full
Язык : Ukrainian
Default : Нет
Forced : Нет

Текст #3
Идентификатор : 6
Формат : UTF-8
Идентификатор кодека : S_TEXT/UTF8
Идентификатор кодека/Информация : UTF-8 Plain Text
Заголовок : Full
Язык : English
Default : Нет
Forced : Нет

Текст #4
Идентификатор : 7
Формат : UTF-8
Идентификатор кодека : S_TEXT/UTF8
Идентификатор кодека/Информация : UTF-8 Plain Text
Заголовок : Full SDH
Язык : English
Default : Нет
Forced : Нет

Меню
00:00:00.000 : :Chapter 01
00:03:12.650 : :Chapter 03
00:07:15.977 : :Chapter 05
00:10:25.249 : :Chapter 07
00:14:15.563 : :Chapter 09
00:17:21.248 : :Chapter 11
00:19:33.338 : :Chapter 13
00:23:21.024 : :Chapter 15
00:24:36.391 : :Chapter 17
00:28:13.108 : :Chapter 19
00:31:26.009 : :Chapter 21
00:34:12.050 : :Chapter 23
00:37:11.812 : :Chapter 25
00:41:00.875 : :Chapter 27
00:42:16.617 : :Chapter 29
00:45:47.453 : :Chapter 31
00:48:31.825 : :Chapter 33
00:52:57.799 : :Chapter 35
00:55:21.776 : :Chapter 37
00:57:58.808 : :Chapter 39
00:59:31.150 : :Chapter 41
01:01:35.274 : :Chapter 43
01:05:13.910 : :Chapter 45
01:08:42.409 : :Chapter 47
01:12:14.246 : :Chapter 49
01:14:22.833 : :Chapter 51
01:20:27.823 : :Chapter 53
01:22:25.649 : :Chapter 55
01:25:38.174 : :Chapter 57
01:29:41.584 : :Chapter 59
01:33:49.457 : :Chapter 61
01:36:43.255 : :Chapter 63
01:39:33.425 : :Chapter 65
01:43:05.596 : :Chapter 67
01:45:08.218 : :Chapter 69
01:46:12.657 : :Chapter 71
01:53:26.549 : :Chapter 73
   
Торрент: Зарегистрирован [18 дек 2014, 15:58] Скачать торрент
Скачать торрент
О MediaGet
[ Размер 16.83 КБ / Просмотров 87 ]

Статус:
 
Приватный: Нет (DHT включён)
Размер: 3.21 ГБ (3 445 358 314 байт)
   
Аватара пользователя

Модератор музыки
Модератор музыки
 
Раздал: 19.27 ТБ
Скачал: 756.17 МБ
Ратио: None.
Сообщения: 2097
Фото: 7
Зарегистрирован: 13 ноя 2013, 17:22
Откуда: Дмитров
Medals: 2
Лучший релиз за год (1) 1000 раздач! (1)
  • Личное сообщение
  • Сайт

Вернуться в Фильмы 2016 (новинки)

Кто сейчас на конференции

Зарегистрированные пользователи: Dimkinzx, Dom_777, EAst, prince1104, s19802005

Ресурс не предоставляет электронные версии произведений, а занимается лишь коллекционированием и каталогизацией ссылок, присылаемых и публикуемых на форуме нашими читателями. Если вы являетесь правообладателем какого-либо представленного материала и не желаете чтобы ссылка на него находилась в нашем каталоге, свяжитесь с нами и мы незамедлительно удалим её. Файлы для обмена на трекере предоставлены пользователями сайта, и администрация не несёт ответственности за их содержание. Просьба не заливать файлы, защищенные авторскими правами, а также файлы нелегального содержания!
cron