Главный (2015) WEBRip скачать торрент

Русская классика кино, Rip, Рипы, Отечественные фильмы

Модератор: Модераторы видео

  • Статистика раздачи
Размер: 1.37 ГБ   |  Зарегистрирован: 02 фев 2016, 19:50   |   .torrent скачан: 8 раз
Сидеров: 628  [ 0 байт/сек ]     Личеров: 31  [ 0 байт/сек ]  
Список файлов : Кто скачал : Раздают : Скачивают : Кто благодарил : История : Не раздающие : Запрашивали сидеров : Внешние трекеры 
  

Главный (2015) WEBRip

Сообщение Админ » 02 фев 2016, 19:50

Главный (2015) WEBRip

Производство: Россия
Жанр: история, драма

Режиссер: Юрий Кара
Актеры: Валерий Гришко, Борис Щербаков, Лидия Арефьева, Алексей Богачук, Федор Лавров, Георгий Солдатов, Борис Каморзин, Анатолий Котенёв, Вадим Андреев, Александр Кузнецов

Описание:
Все знают, что Сергей Королев запустил в космос и Первый искусственный спутник Земли, и Лайку, и Гагарина, и вывел в открытый космос Алексея Леонова. Но никто не знает, насколько ему было трудно преодолеть и косность партийного руководства, и недоверие коллег. Но, как сказал один из его соратников, что у Королева все получалось потому, что ему верили и знали, что он знает, куда надо идти.


Дата премьеры в России: 8 октября 2015, «Мастер Синема»

Продолжительность: 01:44:41
Качество видео: WEBRip
Перевод: Не требуется (русский)
Вид субтитров: Отсутствуют

Видео: Xvid, 720x400, ~1668 Кбит/с
Аудио: AC3, 2 ch, 192 Кбит/с
Семпл: Скачать
Код:
Код: Выделить всё
General
Complete name                  : D:\Downloading\Glavniy.2015.WEBRip.14OOMB.avi
Format                         : AVI
Format/Info                    : Audio Video Interleave
File size                      : 1.37 GiB
Duration                       : 1h 44mn
Overall bit rate               : 1 869 Kbps
Writing application            : VirtualDubMod 1.5.10.2 (build 2540/release)
Writing library                : VirtualDubMod build 2540/release

Video
ID                             : 0
Format                         : MPEG-4 Visual
Format profile                 : Advanced [email protected]
Format settings, BVOP          : 2
Format settings, QPel          : No
Format settings, GMC           : No warppoints
Format settings, Matrix        : Default (MPEG)
Codec ID                       : XVID
Codec ID/Hint                  : XviD
Duration                       : 1h 44mn
Bit rate                       : 1 668 Kbps
Width                          : 720 pixels
Height                         : 400 pixels
Display aspect ratio           : 16:9
Frame rate                     : 24.000 fps
Color space                    : YUV
Chroma subsampling             : 4:2:0
Bit depth                      : 8 bits
Scan type                      : Progressive
Compression mode               : Lossy
Bits/(Pixel*Frame)             : 0.241
Stream size                    : 1.22 GiB (89%)
Writing library                : XviD 1.2.1 (UTC 2008-12-04)

Audio
ID                             : 1
Format                         : AC-3
Format/Info                    : Audio Coding 3
Mode extension                 : CM (complete main)
Format settings, Endianness    : Big
Codec ID                       : 2000
Duration                       : 1h 44mn
Bit rate mode                  : Constant
Bit rate                       : 192 Kbps
Channel(s)                     : 2 channels
Channel positions              : Front: L R
Sampling rate                  : 48.0 KHz
Frame rate                     : 31.250 fps (1536 spf)
Compression mode               : Lossy
Stream size                    : 144 MiB (10%)
Alignment                      : Split accross interleaves
Interleave, duration           : 42 ms (1.00 video frame)
Interleave, preload duration   : 500 ms

Скриншоты:



Время раздачи: 24/7 (до 10 скачавших)
   
Торрент: Зарегистрирован [02 фев 2016, 19:50] Скачать торрент
Скачать торрент
О MediaGet
[ Размер 14.43 КБ / Просмотров 172 ]

Статус:
 
Приватный: Нет (DHT включён)
Размер: 1.37 ГБ (1 467 723 776 байт)
   
Аватара пользователя

Администратор
Администратор
 
Раздал: 2.33 ПБ
Скачал: 1.02 ПБ
Ратио: 2.281
Сообщения: 3718
Зарегистрирован: 07 май 2010, 17:29
Medals: 1
Лучший релиз за месяц (1)
  • Личное сообщение
  • ICQ

  • Похожие торренты
    Ответы
    Просмотры
    Последнее сообщение

Вернуться в Отечественные фильмы (Rip's)

Кто сейчас на конференции

Зарегистрированные пользователи: нет зарегистрированных пользователей

Ресурс не предоставляет электронные версии произведений, а занимается лишь коллекционированием и каталогизацией ссылок, присылаемых и публикуемых на форуме нашими читателями. Если вы являетесь правообладателем какого-либо представленного материала и не желаете чтобы ссылка на него находилась в нашем каталоге, свяжитесь с нами и мы незамедлительно удалим её. Файлы для обмена на трекере предоставлены пользователями сайта, и администрация не несёт ответственности за их содержание. Просьба не заливать файлы, защищенные авторскими правами, а также файлы нелегального содержания!
cron