Страна чудес (2015) DVDRip [H.264] скачать торрент

Русская классика кино, Rip, Рипы, Отечественные фильмы

Модератор: Модераторы видео

  • Статистика раздачи
Размер: 1.53 ГБ   |  Зарегистрирован: 31 янв 2016, 00:54   |   .torrent скачан: 26 раз
Сидеров: 1446  [ 0 байт/сек ]     Личеров: 75  [ 0 байт/сек ]  
Список файлов : Кто скачал : Раздают : Скачивают : Кто благодарил : История : Не раздающие : Запрашивали сидеров : Внешние трекеры 
  

Страна чудес (2015) DVDRip [H.264]

Сообщение Админ » 31 янв 2016, 00:54

Страна чудес (2015) DVDRip [H.264]

Производство: Россия / All Media Company
Жанр: Комедия

Режиссер: Дмитрий Дьяченко, Максим Свешников
Продюсер: Эдуард Илоян, Руслан Татаринцев, Георгий Шабанов
Актеры: Елена Яковлева, Федор Добронравов, Александр Паль, Олеся Железняк, Сергей Лавыгин, Грант Тохатян, Ольга Лерман, Тимофей Трибунцев, Иван Добронравов, Анна Назарова

Описание:
Сюжет описывает чудесные новогодние истории, каждая из который приключилась с незнакомыми друг другу людьми в разных уголках России 31-го декабря. Работник ППС в первый раз выходит на смену и неожиданно принимает роды у своей жены. Молодая влюблённая пара пробует помочь своим родителям найти общий язык. Четверо незнакомцев, несмотря на непогоду, совершат авиаперелёт в Москву. Супруги Люба и Семён отправятся на съёмки их любимой телевизионной программы «Поле чудес». А парень по имени Валера решит, что ему делать со своими новыми знакомыми, инопланетянами.


Дата премьеры в России: 1 января 2016, «WDSSPR»

Продолжительность: 01:20:06
Качество видео: DVDRip
Перевод: Не требуется (лицензия)
Вид субтитров: Отсутствуют
Примечание: присутствуют рекламные вставки
Видео: AVC/H.264, 720x304, ~2300 kb/s
Аудио: AC3, 6 ch, 448 kb/s
Семпл: Скачать
Код:
Код: Выделить всё
Общее
Уникальный идентификатор                 : 201975478216349258077889433714111457286 (0x97F30FE9404A7A0FAC276A159832A806)
Полное имя                               :Strana.Chudes.2015.O.DVDRip.AVC.nnm-club.mkv
Формат                                   : Matroska
Версия формата                           : Version 2
Размер файла                             : 1,53 Гбайт
Продолжительность                        : 1 ч. 19 м.
Общий поток                              : 2747 Кбит/сек
Дата кодирования                         : UTC 2016-01-29 19:03:09
Программа кодирования                    : mkvmerge v5.7.0 ('The Whirlwind') built on Jul  8 2012 20:08:51
Библиотека кодирования                   : libebml v1.2.3 + libmatroska v1.3.0

Видео
Идентификатор                            : 1
Формат                                   : AVC
Формат/Информация                        : Advanced Video Codec
Профиль формата                          :
Параметр CABAC формата                   : Да
Параметр ReFrames формата                : 4 кадра
Режим смешивания                         : Header stripping
Идентификатор кодека                     : V_MPEG4/ISO/AVC
Продолжительность                        : 1 ч. 19 м.
Битрейт                                  : 2300 Кбит/сек
Ширина                                   : 720 пикселей
Высота                                   : 304 пикселя
Соотношение сторон                       : 2,35:1
Режим частоты кадров                     : Постоянный
Частота кадров                           : 25,000 кадров/сек
Цветовое пространство                    : YUV
Субдискретизация насыщенности            : 4:2:0
Битовая глубина                          : 8 бит
Тип развёртки                            : Прогрессивная
Бит/(Пиксели*Кадры)                      : 0.420
Размер потока                            : 1,25 Гбайт (82%)
Библиотека кодирования                   : x264 core 146 r2538 121396c
Настройки программы                      : cabac=1 / ref=3 / deblock=1:-2:-1 / analyse=0x3:0x133 / me=umh / subme=6 / psy=1 / psy_rd=1.00:0.20 / mixed_ref=1 / me_range=24 / chroma_me=1 / trellis=2 / 8x8dct=1 / cqm=0 / deadzone=21,11 / fast_pskip=1 / chroma_qp_offset=-3 / threads=18 / lookahead_threads=2 / sliced_threads=0 / nr=0 / decimate=1 / interlaced=0 / bluray_compat=0 / constrained_intra=0 / bframes=3 / b_pyramid=2 / b_adapt=2 / b_bias=0 / direct=3 / weightb=1 / open_gop=0 / weightp=2 / keyint=250 / keyint_min=25 / scenecut=40 / intra_refresh=0 / rc_lookahead=60 / rc=2pass / mbtree=1 / bitrate=2300 / ratetol=1.0 / qcomp=0.60 / qpmin=0 / qpmax=69 / qpstep=4 / cplxblur=20.0 / qblur=0.5 / ip_ratio=1.40 / aq=1:1.00
Язык                                     : English
Default                                  : Да
Forced                                   : Нет
Statistics Tags Issue                    : mkvmerge v8.7.0 ('All of the above') 64bit 2016-01-29 18:06:06 / mkvmerge v5.7.0 ('The Whirlwind') built on Jul  8 2012 20:08:51 2016-01-29 19:03:09
FromStats_BitRate                        : 2298085
FromStats_Duration                       : 01:19:51.520000000
FromStats_FrameCount                     : 119788
FromStats_StreamSize                     : 1376415254

Аудио
Идентификатор                            : 2
Формат                                   : AC-3
Формат/Информация                        : Audio Coding 3
Расширение режима                        : CM (complete main)
Параметр Endianness формата              : Big
Режим смешивания                         : Header stripping
Идентификатор кодека                     : A_AC3
Продолжительность                        : 1 ч. 19 м.
Вид битрейта                             : Постоянный
Битрейт                                  : 448 Кбит/сек
Каналы                                   : 6 каналов
Расположение каналов                     : Front: L C R, Side: L R, LFE
Частота                                  : 48,0 КГц
Частота кадров                           : 31,250 кадров/сек (1536 spf)
Метод сжатия                             : С потерями
Размер потока                            : 256 Мбайт (16%)
Язык                                     : Russian
Default                                  : Да
Forced                                   : Нет
Statistics Tags Issue                    : mkvmerge v8.7.0 ('All of the above') 64bit 2016-01-29 18:06:06 / mkvmerge v5.7.0 ('The Whirlwind') built on Jul  8 2012 20:08:51 2016-01-29 19:03:09
FromStats_BitRate                        : 448000
FromStats_Duration                       : 01:19:51.488000000
FromStats_FrameCount                     : 149734
FromStats_StreamSize                     : 268323328


Скриншоты:

   
Торрент: Зарегистрирован [31 янв 2016, 00:54] Скачать торрент
Скачать торрент
О MediaGet
[ Размер 16.12 КБ / Просмотров 218 ]

Статус:
 
Приватный: Нет (DHT включён)
Размер: 1.53 ГБ (1 645 400 198 байт)
   
Аватара пользователя

Администратор
Администратор
 
Раздал: 2.33 ПБ
Скачал: 1.02 ПБ
Ратио: 2.281
Сообщения: 3718
Зарегистрирован: 07 май 2010, 17:29
Medals: 1
Лучший релиз за месяц (1)
  • Личное сообщение
  • ICQ

  • Похожие торренты
    Ответы
    Просмотры
    Последнее сообщение

Вернуться в Отечественные фильмы (Rip's)

Кто сейчас на конференции

Зарегистрированные пользователи: нет зарегистрированных пользователей

Ресурс не предоставляет электронные версии произведений, а занимается лишь коллекционированием и каталогизацией ссылок, присылаемых и публикуемых на форуме нашими читателями. Если вы являетесь правообладателем какого-либо представленного материала и не желаете чтобы ссылка на него находилась в нашем каталоге, свяжитесь с нами и мы незамедлительно удалим её. Файлы для обмена на трекере предоставлены пользователями сайта, и администрация не несёт ответственности за их содержание. Просьба не заливать файлы, защищенные авторскими правами, а также файлы нелегального содержания!
cron