эмоциональная смазка поршней бетононасоса

Гоголь. Ближайший (Наталья Бондарчук) [2009, драма, биография, SATRip] скачать торрент

Русская классика кино, Rip, Рипы, Отечественные фильмы

Модератор: Модераторы видео

  • Статистика раздачи
Размер: 988.77 МБ   |  Зарегистрирован: 01 фев 2015, 14:36   |   .torrent скачан: 0 раз
Сидеров: 0  [ 0 байт/сек ]     Личеров: 0  [ 0 байт/сек ]  
Список файлов : Кто скачал : Раздают : Скачивают : Кто благодарил : История : Не раздающие : Запрашивали сидеров : Внешние трекеры 
  

Гоголь. Ближайший (Наталья Бондарчук) [2009, драма, биография, SATRip]

Сообщение Фаромир брат » 01 фев 2015, 14:36

Гоголь. Ближайший

Жанр: драма, биография
Год выпуска: 2009
Продолжительность: 01:45:06

Режиссёр: Наталья Бондарчук

В ролях: Евгений Редько, Николай Бурляев, Леонид Мозговой, Анастасия Заворотнюк, Мария Бурляева, Валентина Теличкина, Иван Мурадханов, Анна Левченко, Ольга Сумская, Радмила Щёголева, Алексей Богданович, Оксана Борбат, Игорь Днестрянский, Анастасия Добрынина, Андрей Мокульский, Егор Новокшонов, Софья Хилькова, Инга Шатова, Павел Тупиков

Описание: Фильм о последних днях Николая Васильевича с ретроспективой в его прошлое.
«Гоголь. Ближайший» навеяно знаменитой картиной «Явление Христа народу», где Иванов рисовал своего друга Николая Гоголя.
Писатель изображен ближайшим к Иисусу Христу (человек в красном).

Семпл

Качество видео: SATRip
Формат видео: AVI

Видео: 688x368 (1.87:1), 25 fps, XviD build 64 ~1049 kbps avg, 0.17 bit/pixel
Аудио: 48 kHz, AC3 Dolby Digital, 2/0 (L,R) ch, ~256.00 kbps avg
General
Complete name : D:\MOVIE\Гоголь.Ближайший (2009).avi
Format : AVI
Format/Info : Audio Video Interleave
File size : 989 MiB
Duration : 1h 45mn
Overall bit rate : 1 315 Kbps
Writing library : VirtualDub build 32842/release

Video
ID : 0
Format : MPEG-4 Visual
Format profile : Advanced [email protected]
Format settings, BVOP : Yes
Format settings, QPel : No
Format settings, GMC : No warppoints
Format settings, Matrix : Default (MPEG)
Codec ID : XVID
Codec ID/Hint : XviD
Duration : 1h 45mn
Bit rate : 1 050 Kbps
Width : 688 pixels
Height : 368 pixels
Display aspect ratio : 1.85:1
Frame rate : 25.000 fps
Color space : YUV
Chroma subsampling : 4:2:0
Bit depth : 8 bits
Scan type : Progressive
Compression mode : Lossy
Bits/(Pixel*Frame) : 0.166
Stream size : 789 MiB (80%)
Writing library : XviD 64

Audio
ID : 1
Format : AC-3
Format/Info : Audio Coding 3
Mode extension : CM (complete main)
Format settings, Endianness : Big
Codec ID : 2000
Duration : 1h 45mn
Bit rate mode : Constant
Bit rate : 256 Kbps
Channel(s) : 2 channels
Channel positions : Front: L R
Sampling rate : 48.0 KHz
Bit depth : 16 bits
Compression mode : Lossy
Stream size : 192 MiB (19%)
Alignment : Aligned on interleaves
Interleave, duration : 40 ms (1.00 video frame)
Interleave, preload duration : 512 ms

   
Торрент: Зарегистрирован [01 фев 2015, 14:36] Скачать торрент
Скачать торрент
О MediaGet
[ Размер 19.81 КБ / Просмотров 43 ]

Статус:
 
Приватный: Нет (DHT включён)
Размер: 988.77 МБ (1 036 797 424 байт)
   
Аватара пользователя

Сид-сен-сей
Сид-сен-сей
 
Раздал: 24.31 ТБ
Скачал: 1.72 ТБ
Ратио: 20.885
Сообщения: 7917
Фото: 126
Зарегистрирован: 26 ноя 2012, 17:20
Medals: 2
1000 раздач! (1) Меценат №2 (1)

  • Похожие торренты
    Ответы
    Просмотры
    Последнее сообщение

Вернуться в Отечественные фильмы (Rip's)

Кто сейчас на конференции

Зарегистрированные пользователи: killerfuck

Ресурс не предоставляет электронные версии произведений, а занимается лишь коллекционированием и каталогизацией ссылок, присылаемых и публикуемых на форуме нашими читателями. Если вы являетесь правообладателем какого-либо представленного материала и не желаете чтобы ссылка на него находилась в нашем каталоге, свяжитесь с нами и мы незамедлительно удалим её. Файлы для обмена на трекере предоставлены пользователями сайта, и администрация не несёт ответственности за их содержание. Просьба не заливать файлы, защищенные авторскими правами, а также файлы нелегального содержания!
cron