Чемпионы (Дмитрий Дюжев, Артём Аксёненко, Алексей Вакулов, Эмиль Никогосян) [2014, Драма, спорт, BDRip 720р] Лицензия скачать торрент

Русская классика кино, Rip, Рипы, Отечественные фильмы

Модератор: Модераторы видео

  • Статистика раздачи
Размер: 4.16 ГБ   |  Зарегистрирован: 22 фев 2014, 12:02   |   .torrent скачан: 48 раз
Сидеров: 67  [ 0 байт/сек ]     Личеров: 3  [ 0 байт/сек ]  
Список файлов : Кто скачал : Раздают : Скачивают : Кто благодарил : История : Не раздающие : Запрашивали сидеров : Внешние трекеры 
  

Чемпионы (Дмитрий Дюжев, Артём Аксёненко, Алексей Вакулов, Эмиль Никогосян) [2014, Драма, спорт, BDRip 720р] Лицензия

Сообщение FaNaTiK » 22 фев 2014, 12:02

Оригинальное название: Чемпионы
Год выхода: 2014
Жанр: Драма, спорт
Выпущено: Россия
Продолжительность: 01:37:55
Озвучивание: Оригинальное [Лицензия]
Режиссер: Дмитрий Дюжев, Артём Аксёненко, Алексей Вакулов, Эмиль Никогосян
В ролях: Светлана Ходченкова, Алексей Чадов, Марк Богатырёв, Андрей Смоляков, Константин Крюков, Татьяна Арнтгольц, Таисия Вилкова, Александр Молочников, Максим Виторган, Ангелина Добророднова, Ольга Тумайкина, Андрей Федорцов, Екатерина Климова, Михаил Горевой, Игорь Верник, Дмитрий Губерниев


О фильме: В центре сюжета фильма история пути к чемпионским титулам нескольких спортсменов. Пять реальных историй олимпийских медалей России. Пять историй, где переплетаются любовь, предательство, дружба. Это истории настоящих побед. И за каждой победой стоит уважение, труд и вера в себя, в близких и в свою страну.





Формат: MKV
Качество: BDRip [720р]
Видео: MPEG-4 AVC, 5512 Kбит/с, 1280x536, 25 кадр/с
Аудио:AC3, 6 ch, 448 Кбит/с


Общее
Уникальный идентификатор : 247616505550217580132750676451024056138 (0xBA49344B74C527AD8758ED101F9A2F4A)
Полное имя : C: DownloadsVideoChempions.2014.720p.mkv
Формат : Matroska
Версия формата : Version 2
Размер файла : 4,16 Гбайт
Продолжительность : 1 ч. 37 м.
Общий поток : 6087 Кбит/сек
Название фильма : Reliase for HDClub
Дата кодирования : UTC 2014-02-21 14:55:18
Программа кодирования : mkvmerge v6.7.0 ('Back to the Ground') 64bit built on Jan 8 2014 15:10:52
Библиотека кодирования : libebml v1.3.0 + libmatroska v1.4.1

Видео
Идентификатор : 1
Формат : AVC
Формат/Информация : Advanced Video Codec
Профиль формата : [email protected]
Параметр CABAC формата : Да
Параметр ReFrames формата : 12 кадров
Идентификатор кодека : V_MPEG4/ISO/AVC
Продолжительность : 1 ч. 37 м.
Битрейт : 5518 Кбит/сек
Ширина : 1280 пикселей
Высота : 536 пикселей
Соотношение сторон : 2,40:1
Режим частоты кадров : Постоянный
Частота кадров : 24,000 кадра/сек
Цветовое пространство : YUV
Субдискретизация насыщенности : 4:2:0
Битовая глубина : 8 бит
Тип развёртки : Прогрессивная
Бит/(Пиксели*Кадры) : 0.335
Размер потока : 3,77 Гбайт (91%)
Заголовок : Chempions.2014.720p.BluRay.Rus.HDClub
Библиотека кодирования : x264 core 140 r2377+40 929f149 tMod [[email protected] X86_64]
Настройки программы : cabac=1 / ref=12 / deblock=1:-3:-3 / analyse=0x3:0x133 / me=umh / subme=11 / psy=1 / fade_compensate=0.00 / psy_rd=1.00:0.00 / mixed_ref=1 / me_range=32 / chroma_me=1 / trellis=2 / 8x8dct=1 / cqm=0 / deadzone=21,11 / fast_pskip=0 / chroma_qp_offset=-2 / threads=12 / lookahead_threads=2 / sliced_threads=0 / nr=0 / decimate=1 / interlaced=0 / bluray_compat=0 / constrained_intra=0 / fgo=0 / bframes=7 / b_pyramid=2 / b_adapt=2 / b_bias=0 / direct=1 / weightb=1 / open_gop=0 / weightp=2 / keyint=240 / keyint_min=24 / scenecut=40 / intra_refresh=0 / rc_lookahead=60 / rc=crf / mbtree=0 / crf=16.0000 / qcomp=0.70 / qpmin=0:0:0 / qpmax=69:69:69 / qpstep=4 / vbv_maxrate=50000 / vbv_bufsize=62500 / crf_max=0.0 / nal_hrd=none / filler=0 / ip_ratio=1.25 / pb_ratio=1.15 / aq=4:0.80 / aq-sensitivity=10.00 / aq-factor=1.00:1.00:1.00 / aq2=0 / aq3=0
Язык : Russian
Default : Да
Forced : Нет
Основные цвета : BT.709
Характеристики трансфера : BT.709
Коэффициенты матрицы : BT.709

Аудио
Идентификатор : 2
Формат : AC-3
Формат/Информация : Audio Coding 3
Расширение режима : CM (complete main)
Параметр Endianness формата : Big
Идентификатор кодека : A_AC3
Продолжительность : 1 ч. 37 м.
Вид битрейта : Постоянный
Битрейт : 448 Кбит/сек
Каналы : 6 каналов
Расположение каналов : Front: L C R, Side: L R, LFE
Частота : 48,0 КГц
Битовая глубина : 16 бит
Метод сжатия : С потерями
Размер потока : 314 Мбайт (7%)
Язык : Russian
Default : Да
Forced : Нет

Меню
00:00:00.000 : ru:Chapter 1
00:00:04.000 : ru:Chapter 2
00:10:56.708 : ru:Chapter 3
00:25:52.875 : ru:Chapter 4
00:36:33.250 : ru:Chapter 5
00:52:38.541 : ru:Chapter 6
01:01:39.833 : ru:Chapter 7
01:17:17.750 : ru:Chapter 8
01:29:19.875 : ru:Chapter 9
   
Торрент: Зарегистрирован [22 фев 2014, 12:02] Бронзовая раздача - Скачанное не учитывается на 24% Скачать торрент
Скачать торрент
О MediaGet
[ Размер 21.33 КБ / Просмотров 119 ]

Статус:
 
Приватный: Нет (DHT включён)
Размер: 4.16 ГБ (4 467 276 408 байт)
   
Аватара пользователя

Модератор музыки
Модератор музыки
 
Раздал: 19.27 ТБ
Скачал: 756.17 МБ
Ратио: None.
Сообщения: 2050
Фото: 7
Зарегистрирован: 13 ноя 2013, 17:22
Откуда: Дмитров
Medals: 1
1000 раздач! (1)
  • Личное сообщение
  • Сайт
ТегиЧемпионы, BDRip, 720, Россия, Спорт, Драма, Лицензия, MKV

Вернуться в Отечественные фильмы (Rip's)

Кто сейчас на конференции

Зарегистрированные пользователи: нет зарегистрированных пользователей

Ресурс не предоставляет электронные версии произведений, а занимается лишь коллекционированием и каталогизацией ссылок, присылаемых и публикуемых на форуме нашими читателями. Если вы являетесь правообладателем какого-либо представленного материала и не желаете чтобы ссылка на него находилась в нашем каталоге, свяжитесь с нами и мы незамедлительно удалим её. Файлы для обмена на трекере предоставлены пользователями сайта, и администрация не несёт ответственности за их содержание. Просьба не заливать файлы, защищенные авторскими правами, а также файлы нелегального содержания!
cron