Интимные места (Наталья Меркулова, Алексей Чупов) [2013, драма, мелодрама, WEB-DL] [1080p] скачать торрент

Русская классика кино, Rip, Рипы, Отечественные фильмы

Модератор: Модераторы видео

  • Статистика раздачи
Размер: 2.34 ГБ   |  Зарегистрирован: 02 янв 2014, 20:54   |   .torrent скачан: 21 раз
Сидеров: 118  [ 0 байт/сек ]     Личеров: 4  [ 0 байт/сек ]  
Список файлов : Кто скачал : Раздают : Скачивают : Кто благодарил : История : Не раздающие : Запрашивали сидеров : Внешние трекеры 
  

Интимные места (Наталья Меркулова, Алексей Чупов) [2013, драма, мелодрама, WEB-DL] [1080p]

Сообщение pitius76m » 02 янв 2014, 20:58

Оригинальное название: Интимные места
Год выпуска: 2013
Жанр: Драма, мелодрама
Выпущено: Россия, Focus Plus Cinema, Lemon Films Studio, Look-film, Vita Aktiva
Режиссер: Наталья Меркулова, Алексей Чупов

В ролях : Юрий Колокольников, Олеся Судзиловская, Юлия Ауг, Никита Тарасов, Ксения Каталымова, Алексей Чупов, Екатерина Щеглова, Тимур Бадалбейли, Динара Янковская, Павел Артемьев

О фильме : История о современных москвичах среднего класса и личных тайнах, которые они прячут за своим достатком и успехом.



Качество: WEB-DL 1080p
Формат: mkv
Видео: MPEG-4 AVC, 3764 Кбит/с, 1920x804
Аудио: AC3, 6 ch, 384 Кбит/с
Размер: 2.34 ГБ
Продолжительность: 01:19:20
Язык: Русский
Общее
Уникальный идентификатор : 186169155316097093183821049041066471741 (0x8C0EE00630B0F12CB56858565D8D313D)
Полное имя : E:\Intimnie.mesta.2013.O.WEBDL.1080p.mkv
Формат : Matroska
Версия формата : Version 2
Размер файла : 2,34 Гбайт
Продолжительность : 1 ч. 19 м.
Общий поток : 4231 Кбит/сек
Дата кодирования : UTC 2014-01-01 11:57:31
Программа кодирования : mkvmerge v4.0.0 ('The Stars were mine') сборка от Jun 6 2010 16:18:42
Библиотека кодирования : libebml v1.0.0 + libmatroska v1.0.0

Видео
Идентификатор : 1
Формат : AVC
Формат/Информация : Advanced Video Codec
Профиль формата : [email protected]
Параметр CABAC формата : Да
Параметр ReFrames формата : 5 кадров
Идентификатор кодека : V_MPEG4/ISO/AVC
Продолжительность : 1 ч. 19 м.
Битрейт : 3763 Кбит/сек
Ширина : 1920 пикселей
Высота : 804 пикселя
Соотношение сторон : 2,40:1
Режим частоты кадров : Постоянный
Частота кадров : 24,000 кадра/сек
Цветовое пространство : YUV
Субдискретизация насыщенности : 4:2:0
Битовая глубина : 8 бит
Тип развёртки : Прогрессивная
Бит/(Пиксели*Кадры) : 0.102
Размер потока : 2,09 Гбайт (89%)
Язык : English
Default : Да
Forced : Нет
Основные цвета : BT.709
Характеристики трансфера : BT.709
Коэффициенты матрицы : BT.709

Аудио
Идентификатор : 2
Формат : AC-3
Формат/Информация : Audio Coding 3
Расширение режима : CM (complete main)
Параметр Endianness формата : Big
Идентификатор кодека : A_AC3
Продолжительность : 1 ч. 19 м.
Вид битрейта : Постоянный
Битрейт : 384 Кбит/сек
Каналы : 6 каналов
Расположение каналов : Front: L C R, Side: L R, LFE
Частота : 48,0 КГц
Битовая глубина : 16 бит
Метод сжатия : С потерями
Размер потока : 218 Мбайт (9%)
Язык : Russian
Default : Да
Forced : Нет

Меню
00:00:00.000 : en:Глава 1
00:06:25.000 : en:Глава 2
00:12:13.000 : en:Глава 3
00:17:24.000 : en:Глава 4
00:22:29.000 : en:Глава 5
00:27:43.000 : en:Глава 6
00:32:45.000 : en:Глава 7
00:38:12.000 : en:Глава 8
00:43:25.000 : en:Глава 9
00:48:44.000 : en:Глава 10
00:54:08.000 : en:Глава 11
00:59:40.000 : en:Глава 12
01:04:55.000 : en:Глава 13
01:10:01.000 : en:Глава 14
   
Торрент: Зарегистрирован [02 янв 2014, 20:54] Скачать торрент
Скачать торрент
О MediaGet
[ Размер 12.56 КБ / Просмотров 104 ]

Статус:
 
Приватный: Нет (DHT включён)
Размер: 2.34 ГБ (2 517 619 031 байт)
   
Последний раз редактировалось pitius76m 27 фев 2014, 21:34, всего редактировалось 1 раз.
Аватара пользователя
Модератор видео
Модератор видео
 
Раздал: 9.46 ТБ
Скачал: 1 ТБ
Ратио: 9.520
Сообщения: 466
Зарегистрирован: 24 янв 2011, 10:36
Откуда: Продажа компьютерных игр STWAM
  • Личное сообщение
  • Сайт

  • Похожие торренты
    Ответы
    Просмотры
    Последнее сообщение

Re: Интимные места (Наталья Меркулова, Алексей Чупов) [2013, драма, мелодрама, WEB-DL] [1080p]

Сообщение Фаромир брат » 26 фев 2014, 19:43

Формат?
Аватара пользователя

Сид-сен-сей
Сид-сен-сей
 
Раздал: 24.31 ТБ
Скачал: 1.72 ТБ
Ратио: 20.885
Сообщения: 7917
Фото: 126
Зарегистрирован: 26 ноя 2012, 17:20
Medals: 2
1000 раздач! (1) Меценат №2 (1)


Вернуться в Отечественные фильмы (Rip's)

Кто сейчас на конференции

Зарегистрированные пользователи: Kostya98

Ресурс не предоставляет электронные версии произведений, а занимается лишь коллекционированием и каталогизацией ссылок, присылаемых и публикуемых на форуме нашими читателями. Если вы являетесь правообладателем какого-либо представленного материала и не желаете чтобы ссылка на него находилась в нашем каталоге, свяжитесь с нами и мы незамедлительно удалим её. Файлы для обмена на трекере предоставлены пользователями сайта, и администрация не несёт ответственности за их содержание. Просьба не заливать файлы, защищенные авторскими правами, а также файлы нелегального содержания!
cron