Немой / Mute (2018) WEBRip 720p | L2 скачать торрент

Киноновинки, новинки кинопроката, горячие новинки, Русские новинки

Модератор: Модераторы видео

  • Статистика раздачи
Размер: 3.35 ГБ   |  Зарегистрирован: 28 фев 2018, 23:01   |   .torrent скачан: 0 раз
Сидеров: 0  [ 0 байт/сек ]     Личеров: 0  [ 0 байт/сек ]  
Список файлов : Кто скачал : Раздают : Скачивают : Кто благодарил : История : Не раздающие : Запрашивали сидеров : Внешние трекеры 
  

Немой / Mute (2018) WEBRip 720p | L2

Сообщение Вадим Диконенко » 28 фев 2018, 23:01

Информация о фильме
Название: Немой
Оригинальное название: Mute

Год выхода: 2018
Жанр: Фантастика, триллер, детектив
Режиссер: Дункан Джонс
В ролях: Леви Эйзенблаттер, Рози Шоу, Ойген Баудер, Ливия Маттес, Джара Мария Андерс, Кэролайн Петерс, Лаура Де Бур, Грегуар Грос, Александр Скарсгард, Сейнеб Салех и другие
О фильме:
События фильма происходят в Берлине, в 2052 году. В одном из ночных заведений за стойкой бара работает настоящий профессионал своего дела Лео Байлер. Но у него есть одна особенность - он немой. Однако это не мешает бармену находить общий язык с клиентами. Однажды Лео знакомится с девушкой и тут же влюбляется в нее. Но парень не знает, что у возлюбленной есть своя тайна. Вскоре она бесследно исчезает. Поиски девушки оборачиваются для неразговорчивого бармена еще большими неприятностями...



Страна: Великобритания, Германия, Netflix
Продолжительность: 02:07:08
Перевод: Любительский (двухголосый закадровый) | HiWay Grope

Файл
Кодек: MPEG-4 AVC/H.264
Качество: WEBRip 720p
Видео: 1280x640, 24.000 fps, ~3504 kbps, 0.178 bit/pixel
Звук:
Аудио rus: AC3, 48 kHz, 2 ch, 192 Kbps
Субтитры: отсутствуют

Реклама: присутствует

ВНИМАНИЕ! Присутствует ненормативная лексика

Семпл

General
Unique ID : 245635892796201854637185762543120493836 (0xB8CBC08BEF8C168A999AF17271D92D0C)
Complete name : E:Mute.2018.720p.WEBRip.HiWayGropeMute.2018.720p.WEBRip.HiWayGrope.mkv
Format : Matroska
Format version : Version 4 / Version 2
File size : 3.35 GiB
Duration : 2h 7mn
Overall bit rate : 3 771 Kbps
Encoded date : UTC 2018-02-28 18:18:23
Writing application : mkvmerge v18.0.0 ('Apricity') 64-bit
Writing library : libebml v1.3.5 + libmatroska v1.4.8

Video
ID : 1
Format : AVC
Format/Info : Advanced Video Codec
Format profile : [email protected]
Format settings, CABAC : Yes
Format settings, ReFrames : 4 frames
Codec ID : V_MPEG4/ISO/AVC
Duration : 2h 7mn
Bit rate : 3 504 Kbps
Width : 1 280 pixels
Height : 640 pixels
Display aspect ratio : 2.000
Frame rate mode : Constant
Frame rate : 24.000 fps
Color space : YUV
Chroma subsampling : 4:2:0
Bit depth : 8 bits
Scan type : Progressive
Bits/(Pixel*Frame) : 0.178
Stream size : 3.11 GiB (93%)
Language : English
Default : Yes
Forced : No
Color range : Limited
Color primaries : BT.709
Transfer characteristics : BT.709
Matrix coefficients : BT.709

Audio
ID : 2
Format : AC-3
Format/Info : Audio Coding 3
Mode extension : CM (complete main)
Format settings, Endianness : Big
Codec ID : A_AC3
Duration : 2h 7mn
Bit rate mode : Constant
Bit rate : 192 Kbps
Channel(s) : 2 channels
Channel positions : Front: L R
Sampling rate : 48.0 KHz
Frame rate : 31.250 fps (1536 spf)
Compression mode : Lossy
Stream size : 175 MiB (5%)
Title : rus
Language : Russian
Default : Yes
Forced : No



Релиз от: HiWay Grope
   
Торрент: Зарегистрирован [28 фев 2018, 23:01] Скачать торрент
Скачать торрент
О MediaGet
[ Размер 17.77 КБ / Просмотров 316 ]

Статус:
 
Приватный: Нет (DHT включён)
Размер: 3.35 ГБ (3 596 234 849 байт)
   
Аватара пользователя
Прохожий
Прохожий
 
Раздал: 0 байт
Скачал: 0 байт
Ратио: None.
Сообщения: 1
Фото: 0
Зарегистрирован: 20 ноя 2017, 18:36
  • Личное сообщение
  • Сайт

Вернуться в Фильмы 2016 (новинки)

Кто сейчас на конференции

Зарегистрированные пользователи: нет зарегистрированных пользователей

Ресурс не предоставляет электронные версии произведений, а занимается лишь коллекционированием и каталогизацией ссылок, присылаемых и публикуемых на форуме нашими читателями. Если вы являетесь правообладателем какого-либо представленного материала и не желаете чтобы ссылка на него находилась в нашем каталоге, свяжитесь с нами и мы незамедлительно удалим её. Файлы для обмена на трекере предоставлены пользователями сайта, и администрация не несёт ответственности за их содержание. Просьба не заливать файлы, защищенные авторскими правами, а также файлы нелегального содержания!
cron