Викинг (2016) WEB-DLRip-AVC от New-Team | Расширенная версия | iTunes скачать торрент

Киноновинки, новинки кинопроката, горячие новинки, Русские новинки

Модератор: Модераторы видео

  • Статистика раздачи
Размер: 1.46 ГБ   |  Зарегистрирован: 03 мар 2017, 21:26   |   .torrent скачан: 17781 раз
Сидеров: 10928  [ 0 байт/сек ]     Личеров: 1939  [ 0 байт/сек ]  
Список файлов : Кто скачал : Раздают : Скачивают : Кто благодарил : История : Не раздающие : Запрашивали сидеров : Внешние трекеры 
  

Викинг (2016) WEB-DLRip-AVC от New-Team | Расширенная версия | iTunes

Сообщение Фаромир брат » 03 мар 2017, 21:26

Викинг

«Тебе нужно увидеть, чтобы поверить»





Страна: Россия
Жанр: история, драма

Год выпуска: 2016
Продолжительность: 02:28:47

Перевод: Не требуется
Cубтитры: нет
Оригинальная аудиодорожка: русский

Режиссер: Андрей Кравчук

В ролях: Данила Козловский, Светлана Ходченкова, Максим Суханов, Игорь Петренко, Андрей Смоляков, Владимир Епифанцев, Александра Бортич, Кирилл Плетнёв, Александр Устюгов, Ростислав Бершауэр, Павел Делонг, Алексей Демидов

Описание:
Раннее Средневековье. Время тяжелых мечей и темных законов крови. Правящий род в раздоре. Вина за случайную смерть брата легла на Великого Князя. По закону мстить ему должен младший брат — бастард. За отказ убивать он заплатит всем, что у него было, потому что «для мира нужно больше мечей, чем для войны».



Релиз:

Автор рипа: stalkerok

Сэмпл

Качество видео: WEB-DLRip-AVC [Викинг (2016) WEB-DL 1080p [UNRATED] - BLUEBIRD]
Формат видео: MKV
Видео кодек: AVC
Аудио кодек: AC3
Видео: 1208 Кбит/сек, 860x360 (2.40:1), 25 кадр/сек, AVC
Аудио: русский, 192 Кбит/сек, 48 КГц, 16 бит, 2.0, AC3 iTunes
Навигация по главам: есть



x264 [info]: frame I:1716 Avg QP:17.93 size: 35761
x264 [info]: frame P:56025 Avg QP:21.66 size: 11834
x264 [info]: frame B:165455 Avg QP:23.97 size: 3767

Общее
Уникальный идентификатор : 251376543743070010489697097306759291660 (0xBD1D5C7D93679B87AFA1E6312D88E30C)
Полное имя : M:!!!!!!!!!!!!!!!!!!!VIKINGViking.2016.WEB-DLRip-AVC.RUS.stalkerok.new-team.mkv
Формат : Matroska
Версия формата : Version 4 / Version 2
Размер файла : 1,46 Гбайт
Продолжительность : 2 ч. 28 м.
Общий поток : 1401 Кбит/сек
Название фильма : Викинг (2016) (Rip by stalkerok)
Дата кодирования : UTC 2017-03-03 16:02:46
Программа кодирования : mkvmerge v8.6.1 ('Flying') 64bit
Библиотека кодирования : libebml v1.3.3 + libmatroska v1.4.4

Видео
Идентификатор : 1
Формат : AVC
Формат/Информация : Advanced Video Codec
Профиль формата : [email protected]
Параметр CABAC формата : Да
Параметр ReFrames формата : 13 кадров
Идентификатор кодека : V_MPEG4/ISO/AVC
Продолжительность : 2 ч. 28 м.
Битрейт : 1208 Кбит/сек
Ширина : 860 пикселей
Высота : 360 пикселей
Соотношение сторон : 2,40:1
Режим частоты кадров : Постоянный
Частота кадров : 25,000 кадров/сек
Цветовое пространство : YUV
Субдискретизация насыщенности : 4:2:0
Битовая глубина : 8 бит
Тип развёртки : Прогрессивная
Бит/(Пиксели*Кадры) : 0.156
Размер потока : 1,26 Гбайт (86%)
Заголовок : Викинг (2016) (Rip by stalkerok)
Библиотека кодирования : x264 core 148 r2705+54 9f484c1 t_mod_Custom [[email protected] X86_64]
Настройки программы : cabac=1 / ref=13 / deblock=1:-3:-2 / analyse=0x3:0x133 / me=umh / subme=10 / psy=1 / fade_compensate=0.00 / psy_rd=1.00:0.00 / mixed_ref=1 / me_range=32 / chroma_me=1 / trellis=2 / 8x8dct=1 / cqm=0 / deadzone=21,11 / fast_pskip=0 / chroma_qp_offset=-2 / threads=11 / lookahead_threads=2 / sliced_threads=0 / nr=0 / decimate=0 / interlaced=0 / bluray_compat=0 / constrained_intra=0 / fgo=0 / bframes=14 / b_pyramid=2 / b_adapt=2 / b_bias=0 / direct=3 / weightb=1 / open_gop=0 / weightp=2 / keyint=250 / keyint_min=25 / scenecut=40 / intra_refresh=0 / rc_lookahead=60 / rc=2pass / mbtree=0 / bitrate=1208 / ratetol=1.0 / qcomp=0.65 / qpmin=0:0:0 / qpmax=69:69:69 / qpstep=4 / cplxblur=20.0 / qblur=0.5 / vbv_maxrate=50000 / vbv_bufsize=62500 / nal_hrd=none / filler=0 / ip_ratio=1.40 / pb_ratio=1.30 / aq=3:0.92 / aq-sensitivity=10.00 / aq-factor=1.00:1.00:1.00 / aq2=0 / aq3=0
Default : Да
Forced : Нет

Аудио
Идентификатор : 2
Формат : AC-3
Формат/Информация : Audio Coding 3
Расширение режима : CM (complete main)
Параметр Endianness формата : Big
Идентификатор кодека : A_AC3
Продолжительность : 2 ч. 28 м.
Вид битрейта : Постоянный
Битрейт : 192 Кбит/сек
Каналы : 2 канала
Расположение каналов : Front: L R
Частота : 48,0 КГц
Частота кадров : 31,250 кадров/сек (1536 spf)
Метод сжатия : С потерями
Размер потока : 204 Мбайт (14%)
Язык : Russian
Default : Да
Forced : Нет

Меню
00:00:00.000 : en:Глава 1
00:06:52.400 : en:Глава 2
00:11:23.640 : en:Глава 3
00:16:08.960 : en:Глава 4
00:22:59.080 : en:Глава 5
00:29:13.640 : en:Глава 6
00:34:05.240 : en:Глава 7
00:40:15.200 : en:Глава 8
00:46:52.760 : en:Глава 9
00:53:41.240 : en:Глава 10
00:58:49.840 : en:Глава 11
01:04:29.880 : en:Глава 12
01:11:00.640 : en:Глава 13
01:18:14.000 : en:Глава 14
01:24:44.680 : en:Глава 15
01:38:00.680 : en:Глава 16
01:42:28.040 : en:Глава 17
01:50:02.040 : en:Глава 18
01:55:09.560 : en:Глава 12
02:01:02.240 : en:Глава 13
02:05:57.920 : en:Глава 14
02:10:13.840 : en:Глава 15



   
Торрент: Зарегистрирован [03 мар 2017, 21:26] Скачать торрент
Скачать торрент
О MediaGet
[ Размер 15.73 КБ / Просмотров 435 ]

Статус:
 
Приватный: Нет (DHT включён)
Размер: 1.46 ГБ (1 563 884 788 байт)
   
Аватара пользователя

Сид-сен-сей
Сид-сен-сей
 
Раздал: 24.31 ТБ
Скачал: 1.72 ТБ
Ратио: 20.885
Сообщения: 7898
Фото: 125
Зарегистрирован: 26 ноя 2012, 17:20
Medals: 2
1000 раздач! (1) Меценат №2 (1)

Вернуться в Фильмы 2016 (новинки)

Кто сейчас на конференции

Зарегистрированные пользователи: mari1988

Ресурс не предоставляет электронные версии произведений, а занимается лишь коллекционированием и каталогизацией ссылок, присылаемых и публикуемых на форуме нашими читателями. Если вы являетесь правообладателем какого-либо представленного материала и не желаете чтобы ссылка на него находилась в нашем каталоге, свяжитесь с нами и мы незамедлительно удалим её. Файлы для обмена на трекере предоставлены пользователями сайта, и администрация не несёт ответственности за их содержание. Просьба не заливать файлы, защищенные авторскими правами, а также файлы нелегального содержания!
cron