Держи удар, детка (2016) WEB-DLRip-AVC от k.e.n | iTunes скачать торрент

Киноновинки, новинки кинопроката, горячие новинки, Русские новинки

Модератор: Модераторы видео

  • Статистика раздачи
Размер: 1.46 ГБ   |  Зарегистрирован: 09 ноя 2016, 13:54   |   .torrent скачан: 645 раз
Сидеров: 426  [ 0 байт/сек ]     Личеров: 172  [ 0 байт/сек ]  
Список файлов : Кто скачал : Раздают : Скачивают : Кто благодарил : История : Не раздающие : Запрашивали сидеров : Внешние трекеры 
  

Держи удар, детка (2016) WEB-DLRip-AVC от k.e.n | iTunes

Сообщение Админ » 09 ноя 2016, 13:54

Производство: Россия, Level Films
Жанр: Комедия, Мелодрама
Продолжительность: 01:41:18
Перевод: Не требуется (русский) iTunes
Субтитры: Отсутствуют
Режиссер: Ара Оганесян
Продюсер: Виктор Солодников, Ара Оганесян, Арам Оганесян
Актеры: Екатерина Владимирова, Михаил Пореченков, Игорь Верник, Ольга Бузова, Настасья Самбурская, Даниил Вахрушев, Виктор Хориняк, Теймураз Тания, Анна Цуканова, Виталий Гогунский

Описание:
Близняшек Свету и Таню внешне отличить не может никто, но на этом их сходство заканчивается. Света — это женственность и стервозность. Она хочет построить карьеру на телевидении. Таня готовится попасть в сборную России по боксу. Тайсон в юбке. Ее жизнь — это тренировки и спортивный режим. Таня получает травму. Таня уговаривает сестру поменяться местами, чтобы пройти за нее медкомиссию и ходить на тренировки. Света готова на это с условием, что Таня пройдет за нее практику на телеканале. Свете предстоит поменять свой характер, чтобы довести сестру до боя. Тане — подумать мозгами, а не кулаками, чтобы стать Светой.


Релиз от: K.E.N

Качество видео: WEB-DLRip-AVC
Видео: AVC, 1024x428 (2.35:1), 25.000 fps, 1 674 Kbps (0.153 bit/pixel)
Аудио: AC-3, 48.0 KHz, 2 ch, 384 Kbps, CBR (Russian)
Формат : Matroska
Версия формата : Version 2
Размер файла : 1,46 Гбайт
Продолжительность : 1 ч. 41 м.
Общий поток : 2059 Кбит/сек
Дата кодирования : UTC 2016-11-08 16:35:46
Программа кодирования : mkvmerge v7.8.0 ('River Man') 32bit built on Apr 3 2015 12:11:22
Библиотека кодирования : libebml v1.3.1 + libmatroska v1.4.2

Видео
Идентификатор : 1
Формат : AVC
Формат/Информация : Advanced Video Codec
Профиль формата : [email protected]
Параметр CABAC формата : Да
Параметр ReFrames формата : 12 кадров
Идентификатор кодека : V_MPEG4/ISO/AVC
Продолжительность : 1 ч. 41 м.
Битрейт : 1674 Кбит/сек
Ширина : 1024 пикселя
Высота : 428 пикселей
Соотношение сторон : 2,40:1
Режим частоты кадров : Постоянный
Частота кадров : 25,000 кадров/сек
Цветовое пространство : YUV
Субдискретизация насыщенности : 4:2:0
Битовая глубина : 8 бит
Тип развёртки : Прогрессивная
Бит/(Пиксели*Кадры) : 0.153
Размер потока : 1,16 Гбайт (79%)
Библиотека кодирования : x264 core 146 r2538 121396c
Настройки программы : cabac=1 / ref=12 / deblock=1:-3:-3 / analyse=0x3:0x133 / me=umh / subme=11 / psy=1 / psy_rd=1.00:0.15 / mixed_ref=1 / me_range=32 / chroma_me=1 / trellis=2 / 8x8dct=1 / cqm=0 / deadzone=21,11 / fast_pskip=0 / chroma_qp_offset=-3 / threads=12 / lookahead_threads=2 / sliced_threads=0 / nr=0 / decimate=1 / interlaced=0 / bluray_compat=0 / constrained_intra=0 / bframes=8 / b_pyramid=2 / b_adapt=2 / b_bias=0 / direct=3 / weightb=1 / open_gop=0 / weightp=2 / keyint=240 / keyint_min=23 / scenecut=40 / intra_refresh=0 / rc=2pass / mbtree=0 / bitrate=1674 / ratetol=1.0 / qcomp=0.60 / qpmin=0 / qpmax=69 / qpstep=4 / cplxblur=20.0 / qblur=0.5 / ip_ratio=1.40 / pb_ratio=1.30 / aq=2:0.80
Default : Да
Forced : Нет

Аудио
Идентификатор : 2
Формат : AC-3
Формат/Информация : Audio Coding 3
Расширение режима : CM (complete main)
Параметр Endianness формата : Big
Идентификатор кодека : A_AC3
Продолжительность : 1 ч. 41 м.
Вид битрейта : Постоянный
Битрейт : 384 Кбит/сек
Каналы : 2 канала
Расположение каналов : Front: L R
Частота : 48,0 КГц
Битовая глубина : 16 бит
Метод сжатия : С потерями
Размер потока : 278 Мбайт (19%)
Язык : Russian
Default : Да
Forced : Нет

Скриншоты:
   
Торрент: Зарегистрирован [09 ноя 2016, 13:54] Скачать торрент
Скачать торрент
[ Размер 15.28 КБ / Просмотров 216 ]

Статус:
 
Приватный: Нет (DHT включён)
Размер: 1.46 ГБ (1 564 538 078 байт)
   
Аватара пользователя

Администратор
Администратор
 
Раздал: 2.36 ПБ
Скачал: 1.02 ПБ
Ратио: 2.311
Сообщения: 3722
Зарегистрирован: 07 май 2010, 17:29
Medals: 1
Лучший релиз за месяц (1)
  • Личное сообщение
  • ICQ

Вернуться в Фильмы 2016 (новинки)

Кто сейчас на конференции

Зарегистрированные пользователи: нет зарегистрированных пользователей

Ресурс не предоставляет электронные версии произведений, а занимается лишь коллекционированием и каталогизацией ссылок, присылаемых и публикуемых на форуме нашими читателями. Если вы являетесь правообладателем какого-либо представленного материала и не желаете чтобы ссылка на него находилась в нашем каталоге, свяжитесь с нами и мы незамедлительно удалим её. Файлы для обмена на трекере предоставлены пользователями сайта, и администрация не несёт ответственности за их содержание. Просьба не заливать файлы, защищенные авторскими правами, а также файлы нелегального содержания!
cron