Ледниковый период: Столкновение неизбежно / Ice Age: Collision Course (2016) WEBRip | Звук с TS скачать торрент

Киноновинки, новинки кинопроката, горячие новинки, Русские новинки

Модератор: Модераторы видео

  • Статистика раздачи
Размер: 1.37 ГБ   |  Зарегистрирован: 26 авг 2016, 20:09   |   .torrent скачан: 19890 раз
Сидеров: 4894  [ 0 байт/сек ]     Личеров: 440  [ 0 байт/сек ]  
Список файлов : Кто скачал : Раздают : Скачивают : Кто благодарил : История : Не раздающие : Запрашивали сидеров : Внешние трекеры 
  

Ледниковый период: Столкновение неизбежно / Ice Age: Collision Course (2016) WEBRip | Звук с TS

Сообщение Админ » 26 авг 2016, 20:09

Ледниковый период: Столкновение неизбежно / Ice Age: Collision Course

Страна: США
Производство: 20th Century Fox Animation, Blue Sky Studios
Год выпуска: 2016
Жанр: Мультфильм, фантастика, Комедия, приключения, семейный
Продолжительность: 01:34:24

Режиссеры: Майк Тёрмайер, Гален Т. Чу
Авторы сценария: Майкл Дж. Уилсон, Майкл Берг, Йони Бреннер

В ролях: Рэй Романо, Джон Легуизамо, Дэнис Лири, Куин Латифа, Шонн Уильям Скотт, Саймон Пегг, Дженнифер Лопез, Нил Тайсон, Джесси Тайлер Фергюсон

Описание: Отчаянная погоня за неуловимым жёлудем катапультирует Скрата прямо в космос, где он случайно запускает целую серию космических событий. Именно они изменят весь мир Ледникового периода и станут реальной угрозой для него. Чтобы спастись, Сид, Мэнни, Диего и остальные звери должны покинуть свои дома, отправиться в забавное и захватывающее приключение в экзотические новые земли и встретиться со множеством красочных новых персонажей...



Перевод: Профессиональный (полное дублирование) | Звук с TS
Субтитры: нет


Качество: WEBRip
Формат: АVI
Видео кодек: XviD
Аудио кодек: АС3
Видео: 720x400 (16:9), 29.970 fps, XviD ~1 620 kbps avg
Аудио: 48.0 kHz, AC3 Dolby Digital, 2/0 (L,R) ch, ~384 kbps

Бюджет: $105 000 000
Дата премьеры (мир): 19 июня 2016
Дата премьеры (РФ): 14 июля 2016, «Двадцатый Век Фокс СНГ»

ПРИМЕЧАНИЕ: ПРИСУТСТВУЕТ РЕКЛАМА!

General
Complete name : Ice.Age.Collision.Course.2016.Dt.WEBRip.14OOMB_KOSHARA.avi
Format : AVI
Format/Info : Audio Video Interleave
File size : 1.37 GiB
Duration : 1h 33mn
Overall bit rate : 2 096 Kbps
Writing application : VirtualDubMod 1.5.10.2 (build 2540/release)
Writing library : VirtualDubMod build 2540/release
Video #0
ID : 0
Format : MPEG-4 Visual
Format profile : Advanced [email protected]
Format settings, BVOP : 2
Format settings, QPel : No
Format settings, GMC : No warppoints
Format settings, Matrix : Custom
Codec ID : XVID
Codec ID/Hint : XviD
Duration : 1h 33mn
Bit rate : 1 620 Kbps
Width : 720 pixels
Height : 400 pixels
Display aspect ratio : 16:9
Frame rate : 29.970 fps
Color space : YUV
Chroma subsampling : 4:2:0
Bit depth : 8 bits
Scan type : Progressive
Compression mode : Lossy
Bits/(Pixel*Frame) : 0.188
Stream size : 1.06 GiB (77%)
Writing library : XviD 1.2.1 (UTC 2008-12-04)
Audio #1
ID : 1
Format : AC-3
Format/Info : Audio Coding 3
Mode extension : CM (complete main)
Format settings, Endianness : Big
Codec ID : 2000
Duration : 1h 33mn
Bit rate mode : Constant
Bit rate : 384 Kbps
Channel(s) : 2 channels
Channel positions : Front: L R
Sampling rate : 48.0 KHz
Compression mode : Lossy
Stream size : 257 MiB (18%)
Alignment : Split accross interleaves

   
Торрент: Зарегистрирован [26 авг 2016, 20:09] Скачать торрент
Скачать торрент
[ Размер 14.51 КБ / Просмотров 174 ]

Статус:
 
Приватный: Нет (DHT включён)
Размер: 1.37 ГБ (1 468 250 112 байт)
   
Аватара пользователя

Администратор
Администратор
 
Раздал: 2.36 ПБ
Скачал: 1.02 ПБ
Ратио: 2.311
Сообщения: 3722
Зарегистрирован: 07 май 2010, 17:29
Medals: 1
Лучший релиз за месяц (1)
  • Личное сообщение
  • ICQ

  • Похожие торренты
    Ответы
    Просмотры
    Последнее сообщение

Вернуться в Фильмы 2016 (новинки)

Кто сейчас на конференции

Зарегистрированные пользователи: Pavian

Ресурс не предоставляет электронные версии произведений, а занимается лишь коллекционированием и каталогизацией ссылок, присылаемых и публикуемых на форуме нашими читателями. Если вы являетесь правообладателем какого-либо представленного материала и не желаете чтобы ссылка на него находилась в нашем каталоге, свяжитесь с нами и мы незамедлительно удалим её. Файлы для обмена на трекере предоставлены пользователями сайта, и администрация не несёт ответственности за их содержание. Просьба не заливать файлы, защищенные авторскими правами, а также файлы нелегального содержания!
cron