Простая история (2016) WEB-DLRip скачать торрент

Киноновинки, новинки кинопроката, горячие новинки, Русские новинки

Модератор: Модераторы видео

  • Статистика раздачи
Размер: 1.37 ГБ   |  Зарегистрирован: 25 авг 2016, 21:29   |   .torrent скачан: 8593 раз
Сидеров: 2897  [ 0 байт/сек ]     Личеров: 568  [ 0 байт/сек ]  
Список файлов : Кто скачал : Раздают : Скачивают : Кто благодарил : История : Не раздающие : Запрашивали сидеров : Внешние трекеры 
  

Простая история (2016) WEB-DLRip

Сообщение Админ » 25 авг 2016, 21:29

Информация о фильме
Название: Простая история
Год выхода: 2016
Жанр: боевик, военный, драма, мелодрама
Режиссер: Виктор Татарский
В ролях: Сергей Марин, Анастасия Тюнина, Екатерина Проскурина, Михаил Елисеев, Евгений Сидихин, Юсуп Бахшиев, Евгений Добряков, Алексей Красноцветов, Дмитрий Быковский-Ромашов

О фильме:
Вячеслав Воробьев — боец особого подразделения ОМОН. По стечению обстоятельств после одного из спецзаданий сослуживцы и командиры начинают подозревать Вячеслава в гибели товарища. Желая реабилитироваться перед ними и вновь заслужить доверие, главный герой вызывается во внеочередную опасную командировку в город Назрань. Там он знакомится с девушкой Наташей, в которую влюбляется с первого взгляда. Наташа принимает ухаживания молодого человека, и у них завязываются отношения. Но Слава скрывает место своей работы и цели командировки. Правду Наташа узнает только в тот момент, когда Слава отправляется на самое опасное боевое задание в своей жизни.



Страна: Россия
Студия: Фонд кино
Продолжительность: 01:30:02
Перевод: Не требуется

Файл
Качество: WEB-DLRip
Кодек: XviD
Видео: 720x304 (2,35:1), 25 fps, XviD ~1972 Кbps avg, 0.360 bit/pixel
Аудио: AC3, 48 kHz, 2 ch, ~192.00 kbps avg | русский
Субтитры: Отсутствуют

Семпл

Общее
Полное имя : Prostaya.istoriya.2O16.WEBDLRip.avi
Формат : AVI
Формат/Информация : Audio Video Interleave
Размер файла : 1,37 Гбайт
Продолжительность : 1 ч. 30 м.
Общий поток : 2173 Кбит/сек
Программа кодирования : VirtualDubMod 1.5.10.3 | http://www.virtualdub-fr.org || (build 2550/release)
Библиотека кодирования : VirtualDubMod build 2550/release

Видео
Идентификатор : 0
Формат : MPEG-4 Visual
Профиль формата : Advanced [email protected]
Параметр BVOP формата : 2
Параметр QPel формата : Нет
Параметр GMC формата : Без точки перехода
Параметр матрицы формата : Default (MPEG)
Идентификатор кодека : XVID
Идентификатор кодека/Подсказка : XviD
Продолжительность : 1 ч. 30 м.
Битрейт : 1972 Кбит/сек
Ширина : 720 пикселей
Высота : 304 пикселя
Соотношение сторон : 2,35:1
Частота кадров : 25,000 кадров/сек
Цветовое пространство : YUV
Субдискретизация насыщенности : 4:2:0
Битовая глубина : 8 бит
Тип развёртки : Прогрессивная
Метод сжатия : С потерями
Бит/(Пиксели*Кадры) : 0.360
Размер потока : 1,24 Гбайт (91%)
Библиотека кодирования : XviD 1.2.1 (UTC 2008-12-04)

Аудио
Идентификатор : 1
Формат : AC-3
Формат/Информация : Audio Coding 3
Расширение режима : CM (complete main)
Параметр Endianness формата : Big
Идентификатор кодека : 2000
Продолжительность : 1 ч. 30 м.
Вид битрейта : Постоянный
Битрейт : 192 Кбит/сек
Каналы : 2 канала
Расположение каналов : Front: L R
Частота : 48,0 КГц
Частота кадров : 31,250 кадров/сек (1536 spf)
Метод сжатия : С потерями
Размер потока : 124 Мбайт (9%)
Выравнивание : Разделение по промежуткам
Продолжительность промежутка : 40 мс. (1,00 видеокадр)
Время предзагрузки промежутка : 500 мс.
   
Торрент: Зарегистрирован [25 авг 2016, 21:29] Скачать торрент
Скачать торрент
[ Размер 28.05 КБ / Просмотров 128 ]

Статус:
 
Приватный: Нет (DHT включён)
Размер: 1.37 ГБ (1 467 697 152 байт)
   
Аватара пользователя

Администратор
Администратор
 
Раздал: 2.36 ПБ
Скачал: 1.02 ПБ
Ратио: 2.311
Сообщения: 3722
Зарегистрирован: 07 май 2010, 17:29
Medals: 1
Лучший релиз за месяц (1)
  • Личное сообщение
  • ICQ

Вернуться в Фильмы 2016 (новинки)

Кто сейчас на конференции

Зарегистрированные пользователи: нет зарегистрированных пользователей

Ресурс не предоставляет электронные версии произведений, а занимается лишь коллекционированием и каталогизацией ссылок, присылаемых и публикуемых на форуме нашими читателями. Если вы являетесь правообладателем какого-либо представленного материала и не желаете чтобы ссылка на него находилась в нашем каталоге, свяжитесь с нами и мы незамедлительно удалим её. Файлы для обмена на трекере предоставлены пользователями сайта, и администрация не несёт ответственности за их содержание. Просьба не заливать файлы, защищенные авторскими правами, а также файлы нелегального содержания!
cron