Душа шпиона (2015) HDTVRip скачать торрент

Киноновинки, новинки кинопроката, горячие новинки, Русские новинки

Модератор: Модераторы видео

  • Статистика раздачи
Размер: 748.03 МБ   |  Зарегистрирован: 15 авг 2016, 01:05   |   .torrent скачан: 2304 раз
Сидеров: 677  [ 0 байт/сек ]     Личеров: 93  [ 0 байт/сек ]  
Список файлов : Кто скачал : Раздают : Скачивают : Кто благодарил : История : Не раздающие : Запрашивали сидеров : Внешние трекеры 
  

Душа шпиона (2015) HDTVRip

Сообщение Админ » 15 авг 2016, 01:05

Информация о фильме
Название: Душа шпиона
Год выхода: 2015
Жанр: Драма, детектив
Режиссер: Владимир Бортко
В ролях: Андрей Чернышов, Фёдор Бондарчук, Даниил Спиваковский, Марина Александрова, Малкольм МакДауэлл, Сандрин Боннэр, Лайэм Каннингхэм, Михаил Ефремов, Армен Джигарханян, Нина Гогаева, Кристина Бродская, Алексей Булдаков, Алексей Панин, Рудольф Фурманов, Ольга Дроздова, Мария Жиганова, Анна Екатерининская, Виталий Кривонос

О фильме:
Перед российским шпионом в Англии Алексом Уилки стоит задача проникнуть в американскую разведку и выявить крота — нашего разведчика, передающего врагу агентурные сведения. Герой вынужден преодолевать невероятные препятствия, чтобы войти в доверие к американцам…



Страна: Россия
Студия: "ТРИТЭ", "Студия "2-Б-2" Интертэйнмент", "Телекомпания"
Продолжительность: 01:44:55
Перевод: Не требуется

Файл
Кодек: XviD
Качество: HDTVRip
Видео: 624x336 (1.85:1), 25 fps, XviD build 73 ~859 kbps avg, 0.16 bit/pixel
Звук: 48 kHz, MPEG Layer 3, 2 ch, ~128.00 kbps avg
Субтитры: Отсутствуют

Семпл

General
Complete name : D:Изготовление рипаDusha.shpiona.2014.HDTVRip.by shkiper.avi
Format : AVI
Format/Info : Audio Video Interleave
File size : 748 MiB
Duration : 1h 44mn
Overall bit rate : 997 Kbps
Writing application : VirtualDubMod 1.5.10.3 | http://www.virtualdub-fr.org || (build 2550/release)
Writing library : VirtualDubMod build 2550/release

Video
ID : 0
Format : MPEG-4 Visual
Format profile : Advanced [email protected]
Format settings, BVOP : 1
Format settings, QPel : No
Format settings, GMC : No warppoints
Format settings, Matrix : Custom
Codec ID : XVID
Codec ID/Hint : XviD
Duration : 1h 44mn
Bit rate : 859 Kbps
Width : 624 pixels
Height : 336 pixels
Display aspect ratio : 1.85:1
Frame rate : 25.000 fps
Color space : YUV
Chroma subsampling : 4:2:0
Bit depth : 8 bits
Scan type : Progressive
Compression mode : Lossy
Bits/(Pixel*Frame) : 0.164
Stream size : 645 MiB (86%)
Writing library : XviD 73

Audio
ID : 1
Format : MPEG Audio
Format version : Version 1
Format profile : Layer 3
Codec ID : 55
Codec ID/Hint : MP3
Duration : 1h 44mn
Bit rate mode : Constant
Bit rate : 128 Kbps
Channel(s) : 2 channels
Sampling rate : 48.0 KHz
Compression mode : Lossy
Stream size : 96.0 MiB (13%)
Alignment : Aligned on interleaves
Interleave, duration : 40 ms (1.00 video frame)
Interleave, preload duratio : 504 ms
Writing library : LAME3.99r
Encoding settings : -m s -V 4 -q 2 -lowpass 17 -b 128


Релиз от: & Imperiafilm
   
Торрент: Зарегистрирован [15 авг 2016, 01:05] Скачать торрент
Скачать торрент
[ Размер 15.27 КБ / Просмотров 101 ]

Статус:
 
Приватный: Нет (DHT включён)
Размер: 748.03 МБ (784 369 664 байт)
   
Аватара пользователя

Администратор
Администратор
 
Раздал: 2.36 ПБ
Скачал: 1.02 ПБ
Ратио: 2.311
Сообщения: 3722
Зарегистрирован: 07 май 2010, 17:29
Medals: 1
Лучший релиз за месяц (1)
  • Личное сообщение
  • ICQ

Вернуться в Фильмы 2016 (новинки)

Кто сейчас на конференции

Зарегистрированные пользователи: нет зарегистрированных пользователей

Ресурс не предоставляет электронные версии произведений, а занимается лишь коллекционированием и каталогизацией ссылок, присылаемых и публикуемых на форуме нашими читателями. Если вы являетесь правообладателем какого-либо представленного материала и не желаете чтобы ссылка на него находилась в нашем каталоге, свяжитесь с нами и мы незамедлительно удалим её. Файлы для обмена на трекере предоставлены пользователями сайта, и администрация не несёт ответственности за их содержание. Просьба не заливать файлы, защищенные авторскими правами, а также файлы нелегального содержания!
cron