Хижина в лесу / The Cabin in the Woods (Дрю Годдард / Drew Goddard) [2011, США, ужасы, триллер, BDRip-AVC] Dub + Eng, Sub (Rus, Eng) скачать торрент

Киноновинки, новинки кинопроката, горячие новинки, Русские новинки

Модератор: Модераторы видео

  • Статистика раздачи
Размер: 2.18 ГБ   |  Зарегистрирован: 19 мар 2016, 01:29   |   .torrent скачан: 2 раз
Сидеров: 0  [ 0 байт/сек ]     Личеров: 0  [ 0 байт/сек ]  
Список файлов : Кто скачал : Раздают : Скачивают : Кто благодарил : История : Не раздающие : Запрашивали сидеров : Внешние трекеры 
  

Хижина в лесу / The Cabin in the Woods (Дрю Годдард / Drew Goddard) [2011, США, ужасы, триллер, BDRip-AVC] Dub + Eng, Sub (Rus, Eng)

Сообщение Админ » 19 мар 2016, 01:53

Хижина в лесу / The Cabin in the Woods

Страна: США
Студия: Metro-Goldwyn-Mayer (MGM), Mutant Enemy, United Artists
Жанр: Ужасы, триллер
Год выпуска: 2011
Продолжительность: 01:35:00

Перевод: Профессиональный (дублированный) [с ДВД лицензии R5]
Оригинальная аудиодорожка: английская
Режиссер: Дрю Годдард / Drew Goddard

В ролях: Ричард Дженкинс, Брэдли Уитфорд, Джесси Уильямс, Крис Хемсворт, Фрэн Кранц, Кристин Нора Коннолли, Анна Хатчисон, Брайан Дж. Уайт, Эми Эккер, Джоделль Ферланд

Описание: Группе друзей, молодым клеркам, предстоит провести ночь в лесу в стенах причудливого дома. За закрытыми дверями происходит что-то странное и ужасное. Молодые люди даже не успевают понять, что именно им угрожает, но единственное, что они знают — что время быстро уходит.

[img]http://s017.radikal.ru/i406/1112/2b/b8a41ed6d57f.png[/img] [img]http://s39.radikal.ru/i086/1002/54/a2060f93f81f.png[/img] [img]http://s002.radikal.ru/i198/1002/70/79657e93eafe.png[/img]

Релиз: fanatus
Качество видео: BDRip (AVC)
Исходник: The Cabin In The Woods 2011 1080p Blu-ray VC-1 DTS-HD MA 5.1-TTG (HDBits thx MeGUI)
Контейнер: MKV

Видео: MPEG-4 AVC, 2385 kbps , 1024x426, 2.40:1, 23.976 fps, 0.228 bit/pixel
Аудио 1: русский (AC3, 6 ch, 48 kHz, 448 kbps)
Аудио 2: английский (AC3, 6 ch, 48 kHz, 448 kbps)
Cубтитры: русские, английские
Формат субтитров: softsub (SRT)
Главы: есть
General
Unique ID : 172197989103041119414488784670690534099 (0x818C2058FA1D23438F473A900D4262D3)
Complete name : D:\Hizhina.v.lesu.2011.x264.BDRip.(AVC).fanatus.mkv
Format : Matroska
Format version : Version 2
File size : 2.18 GiB
Duration : 1h 35mn
Overall bit rate : 3 281 Kbps
Movie name : The Cabin in the Woods (2011) - fanatus
Encoded date : UTC 2012-09-23 10:23:16
Writing application : mkvmerge v3.4.0 ('Rapunzel') сборка от May 15 2010 09:38:20
Writing library : libebml v0.8.0 + libmatroska v0.9.0

Video
ID : 1
Format : AVC
Format/Info : Advanced Video Codec
Format profile : [email protected]
Format settings, CABAC : Yes
Format settings, ReFrames : 13 frames
Codec ID : V_MPEG4/ISO/AVC
Duration : 1h 35mn
Bit rate : 2 385 Kbps
Width : 1 024 pixels
Height : 426 pixels
Display aspect ratio : 2.40:1
Frame rate : 23.976 fps
Color space : YUV
Chroma subsampling : 4:2:0
Bit depth : 8 bits
Scan type : Progressive
Bits/(Pixel*Frame) : 0.228
Stream size : 1.54 GiB (71%)
Title : The Cabin in the Woods (2011)
Writing library : x264 core 128 r2216 198a7ea
Encoding settings : cabac=1 / ref=13 / deblock=1:-3:-3 / analyse=0x3:0x133 / me=umh / subme=11 / psy=1 / psy_rd=1.10:0.05 / mixed_ref=1 / me_range=48 / chroma_me=1 / trellis=2 / 8x8dct=1 / cqm=0 / deadzone=21,11 / fast_pskip=0 / chroma_qp_offset=-3 / threads=16 / lookahead_threads=2 / sliced_threads=0 / nr=0 / decimate=0 / interlaced=0 / bluray_compat=0 / constrained_intra=0 / bframes=11 / b_pyramid=2 / b_adapt=2 / b_bias=0 / direct=3 / weightb=1 / open_gop=0 / weightp=2 / keyint=240 / keyint_min=23 / scenecut=40 / intra_refresh=0 / rc_lookahead=80 / rc=2pass / mbtree=1 / bitrate=2385 / ratetol=1.0 / qcomp=0.65 / qpmin=0 / qpmax=69 / qpstep=4 / cplxblur=20.0 / qblur=0.5 / ip_ratio=1.40 / aq=1:0.85
Language : English
Default : Yes
Forced : No

Audio #1
ID : 2
Format : AC-3
Format/Info : Audio Coding 3
Mode extension : CM (complete main)
Format settings, Endianness : Big
Codec ID : A_AC3
Duration : 1h 35mn
Bit rate mode : Constant
Bit rate : 448 Kbps
Channel(s) : 6 channels
Channel positions : Front: L C R, Side: L R, LFE
Sampling rate : 48.0 KHz
Bit depth : 16 bits
Compression mode : Lossy
Stream size : 304 MiB (14%)
Title : Dub
Language : Russian
Default : Yes
Forced : Yes

Audio #2
ID : 3
Format : AC-3
Format/Info : Audio Coding 3
Mode extension : CM (complete main)
Format settings, Endianness : Big
Codec ID : A_AC3
Duration : 1h 35mn
Bit rate mode : Constant
Bit rate : 448 Kbps
Channel(s) : 6 channels
Channel positions : Front: L C R, Side: L R, LFE
Sampling rate : 48.0 KHz
Bit depth : 16 bits
Compression mode : Lossy
Stream size : 304 MiB (14%)
Title : Original
Language : English
Default : No
Forced : No

Text #1
ID : 4
Format : UTF-8
Codec ID : S_TEXT/UTF8
Codec ID/Info : UTF-8 Plain Text
Title : R5
Language : Russian
Default : No
Forced : No

Text #2
ID : 5
Format : UTF-8
Codec ID : S_TEXT/UTF8
Codec ID/Info : UTF-8 Plain Text
Title : 107miller
Language : Russian
Default : No
Forced : No

Text #3
ID : 6
Format : UTF-8
Codec ID : S_TEXT/UTF8
Codec ID/Info : UTF-8 Plain Text
Language : English
Default : No
Forced : No

Menu
00:00:00.000 : en:00:00:00.000
00:09:10.550 : en:00:09:10.550
00:18:42.121 : en:00:18:42.121
00:24:21.251 : en:00:24:21.251
00:33:08.653 : en:00:33:08.653
00:39:39.627 : en:00:39:39.627
00:44:18.614 : en:00:44:18.614
00:51:25.291 : en:00:51:25.291
01:00:24.412 : en:01:00:24.412
01:07:18.034 : en:01:07:18.034
01:15:44.540 : en:01:15:44.540
01:21:32.763 : en:01:21:32.763
01:29:54.639 : en:01:29:54.639
---[NoImage] raw [info]: 1024x426p 1:1 @ 24000/1001 fps (cfr)
---[NoImage] x264 [info]: using SAR=1/1
---[NoImage] x264 [info]: using cpu capabilities: MMX2 SSE2Fast FastShuffle SSEMisalign LZCNT
---[NoImage] x264 [info]: profile High, level 4.1
---[NoImage]
---[NoImage] x264 [info]: frame I:1161 Avg QP:13.29 size: 70792
---[NoImage] x264 [info]: frame P:28278 Avg QP:16.36 size: 25533
---[NoImage] x264 [info]: frame B:107241 Avg QP:18.85 size: 8330
---[NoImage] x264 [info]: consecutive B-frames: 2.1% 2.4% 8.9% 15.1% 16.8% 35.2% 7.1% 2.2% 3.5% 1.7% 2.2% 2.8%
---[NoImage] x264 [info]: mb I I16..4: 14.6% 60.6% 24.8%
---[NoImage] x264 [info]: mb P I16..4: 3.4% 13.0% 2.1% P16..4: 28.1% 30.0% 11.0% 2.4% 0.3% skip: 9.6%
---[NoImage] x264 [info]: mb B I16..4: 0.5% 2.1% 0.3% B16..8: 34.9% 19.0% 3.3% direct: 5.8% skip:34.1% L0:46.0% L1:42.6% BI:11.4%
---[NoImage] x264 [info]: 8x8 transform intra:70.0% inter:57.4%
---[NoImage] x264 [info]: direct mvs spatial:96.8% temporal:3.2%
---[NoImage] x264 [info]: coded y,uvDC,uvAC intra: 66.8% 67.4% 53.9% inter: 22.5% 23.5% 11.7%
---[NoImage] x264 [info]: i16 v,h,dc,p: 58% 15% 8% 20%
---[NoImage] x264 [info]: i8 v,h,dc,ddl,ddr,vr,hd,vl,hu: 9% 8% 18% 9% 11% 11% 11% 10% 13%
---[NoImage] x264 [info]: i4 v,h,dc,ddl,ddr,vr,hd,vl,hu: 13% 10% 20% 7% 11% 10% 9% 9% 11%
---[NoImage] x264 [info]: i8c dc,h,v,p: 53% 23% 14% 10%
---[NoImage] x264 [info]: Weighted P-Frames: Y:3.4% UV:2.1%
---[NoImage] x264 [info]: ref P L0: 44.1% 6.5% 17.9% 7.8% 5.8% 4.4% 3.6% 2.4% 1.9% 1.6% 1.4% 1.2% 1.2% 0.2% 0.0%
---[NoImage] x264 [info]: ref B L0: 65.7% 13.5% 7.3% 3.6% 2.7% 2.1% 1.7% 1.1% 1.0% 0.8% 0.4% 0.2%
---[NoImage] x264 [info]: ref B L1: 89.9% 10.1%
---[NoImage] x264 [info]: kb/s:2382.28
---[NoImage] encoded 136680 frames, 12.23 fps, 2382.29 kb/s
   
Торрент: Зарегистрирован [19 мар 2016, 01:29] Скачать торрент
Скачать торрент
[ Размер 11.43 КБ / Просмотров 224 ]

Статус:
 
Приватный: Нет (DHT включён)
Размер: 2.18 ГБ (2 337 691 066 байт)
   
Аватара пользователя

Администратор
Администратор
 
Раздал: 2.36 ПБ
Скачал: 1.02 ПБ
Ратио: 2.311
Сообщения: 3722
Зарегистрирован: 07 май 2010, 17:29
Medals: 1
Лучший релиз за месяц (1)
  • Личное сообщение
  • ICQ

Вернуться в Фильмы 2016 (новинки)

Кто сейчас на конференции

Зарегистрированные пользователи: нет зарегистрированных пользователей

Ресурс не предоставляет электронные версии произведений, а занимается лишь коллекционированием и каталогизацией ссылок, присылаемых и публикуемых на форуме нашими читателями. Если вы являетесь правообладателем какого-либо представленного материала и не желаете чтобы ссылка на него находилась в нашем каталоге, свяжитесь с нами и мы незамедлительно удалим её. Файлы для обмена на трекере предоставлены пользователями сайта, и администрация не несёт ответственности за их содержание. Просьба не заливать файлы, защищенные авторскими правами, а также файлы нелегального содержания!
cron