На гребне волны / Point Break (Эриксон Кор / Ericson Core) [2015, США, Германия, Китай, боевик, триллер, криминал, спорт, BDRip-AVC] Dub + Original + Sub (rus, eng) скачать торрент

Киноновинки, новинки кинопроката, горячие новинки, Русские новинки

Модератор: Модераторы видео

  • Статистика раздачи
Размер: 2.92 ГБ   |  Зарегистрирован: 19 мар 2016, 01:28   |   .torrent скачан: 4 раз
Сидеров: 52  [ 0 байт/сек ]     Личеров: 0  [ 0 байт/сек ]  
Список файлов : Кто скачал : Раздают : Скачивают : Кто благодарил : История : Не раздающие : Запрашивали сидеров : Внешние трекеры 
  

На гребне волны / Point Break (Эриксон Кор / Ericson Core) [2015, США, Германия, Китай, боевик, триллер, криминал, спорт, BDRip-AVC] Dub + Original + Sub (rus, eng)

Сообщение Админ » 19 мар 2016, 01:28

На гребне волны / Point Break
«The only law that matters is gravity»

Страна: США, Германия, Китай
Жанр: боевик, триллер, криминал, спорт
Год выпуска: 2015
Продолжительность: 01:53:51

Перевод: Профессиональный (полное дублирование)
Оригинальная аудиодорожка: английский
Cубтитры: русские, английские
Навигация по главам: есть

Режиссёр: Эриксон Кор / Ericson Core

В ролях: Люк Брейси, Эдгар Рамирес, Рэй Уинстон, Тереза Палмер, Матиас Варела, Клеменс Шик, Тобиас Зантельман, Макс Тириот, Делрой Линдо, Николай Кински, Джуда Льюис, Глайнис Барбер

Описание: Джонни — молодой агент ФБР, специализирующийся на работе под прикрытием. Он не раз выходил из самых сложных ситуаций, всегда доделывая свою работу до конца. Его очередным заданием становится проникновение в банду воров. Однако эти люди не обычные грабители: их главным отличием от остальных является увлечение экстремальными видами спорта. Свои умения они используют при каждом новом ограблении, и стать частью их команды очень непросто. Чтобы войти в банду и остановить преступников, Джонни придется доказать, что он такой же как они, а для этого ему не раз предстоит рискнуть собственной жизнью…


Качество видео: BDRip-AVC (исходник - Blu-ray|Point.Break.2015.COMPLETE.BLURAY)
Формат видео: MKV

Видео: x264, 1056x440 (2.40:1), 23,976 fps, ~2900 kbps, 0.260 bit/pixel
Аудио 1: 48 kHz, AC3 Dolby Digital, 3/2 (L,C,R,l,r) + LFE ch, ~384 kbps [русский]
Аудио 2: 48 kHz, AC3 Dolby Digital, 3/2 (L,C,R,l,r) + LFE ch, ~384 kbps [английский]
Формат субтитров: softsub (SRT)
Format : Matroska
Format version : Version 4 / Version 2
File size : 2.92 GiB
Duration : 1h 53mn
Overall bit rate : 3 666 Kbps
Movie name : На гребне волны / Point Break (2015) :: AFM ::
Encoded date : UTC 2016-03-13 09:17:25
Writing application : mkvmerge v8.3.0 ('Over the Horizon') 32bit
Writing library : libebml v1.3.1 + libmatroska v1.4.2

Video
ID : 1
Format : AVC
Format/Info : Advanced Video Codec
Format profile : [email protected]
Format settings, CABAC : Yes
Format settings, ReFrames : 11 frames
Codec ID : V_MPEG4/ISO/AVC
Duration : 1h 53mn
Bit rate : 2 900 Kbps
Width : 1 056 pixels
Height : 440 pixels
Display aspect ratio : 2.40:1
Frame rate mode : Constant
Frame rate : 23.976 fps
Color space : YUV
Chroma subsampling : 4:2:0
Bit depth : 8 bits
Scan type : Progressive
Bits/(Pixel*Frame) : 0.260
Stream size : 2.25 GiB (77%)
Title : BDRip by AFM [RuTracker.org]
Writing library : x264 core 148 r2665+53 6629127 t_mod_Custom [[email protected] X86_64]
Encoding settings : cabac=1 / ref=11 / deblock=1:-2:-2 / analyse=0x3:0x113 / me=umh / subme=11 / psy=1 / fade_compensate=0.00 / psy_rd=1.00:0.00 / mixed_ref=1 / me_range=32 / chroma_me=1 / trellis=2 / 8x8dct=1 / cqm=0 / deadzone=21,11 / fast_pskip=0 / chroma_qp_offset=-2 / threads=6 / lookahead_threads=1 / sliced_threads=0 / nr=0 / decimate=0 / interlaced=0 / bluray_compat=0 / constrained_intra=0 / fgo=0 / bframes=13 / b_pyramid=2 / b_adapt=2 / b_bias=0 / direct=3 / weightb=1 / open_gop=0 / weightp=2 / keyint=250 / keyint_min=23 / scenecut=40 / intra_refresh=0 / rc_lookahead=40 / rc=2pass / mbtree=0 / bitrate=2900 / ratetol=1.0 / qcomp=0.65 / qpmin=0:0:0 / qpmax=69:69:69 / qpstep=4 / cplxblur=20.0 / qblur=0.5 / vbv_maxrate=50000 / vbv_bufsize=62500 / nal_hrd=none / filler=0 / ip_ratio=1.31 / pb_ratio=1.30 / aq=3:0.90 / aq-sensitivity=10.00 / aq-factor=1.00:1.00:1.00 / aq2=0 / aq3=0 / zones=145270,163777,q=30
Language : English
Default : Yes
Forced : No

Audio #1
ID : 2
Format : AC-3
Format/Info : Audio Coding 3
Mode extension : CM (complete main)
Format settings, Endianness : Big
Codec ID : A_AC3
Duration : 1h 53mn
Bit rate mode : Constant
Bit rate : 384 Kbps
Channel(s) : 6 channels
Channel positions : Front: L C R, Side: L R, LFE
Sampling rate : 48.0 KHz
Compression mode : Lossy
Stream size : 313 MiB (10%)
Title : Dub, AC3 5.1 ~384 kbps
Language : Russian
Default : Yes
Forced : No

Audio #2
ID : 3
Format : AC-3
Format/Info : Audio Coding 3
Mode extension : CM (complete main)
Format settings, Endianness : Big
Codec ID : A_AC3
Duration : 1h 53mn
Bit rate mode : Constant
Bit rate : 384 Kbps
Channel(s) : 6 channels
Channel positions : Front: L C R, Side: L R, LFE
Sampling rate : 48.0 KHz
Compression mode : Lossy
Stream size : 313 MiB (10%)
Title : Original, AC3 5.1 ~384 kbps
Language : English
Default : No
Forced : No

Text #1
ID : 4
Format : UTF-8
Codec ID : S_TEXT/UTF8
Codec ID/Info : UTF-8 Plain Text
Title : forced
Language : Russian
Default : Yes
Forced : No

Text #2
ID : 5
Format : UTF-8
Codec ID : S_TEXT/UTF8
Codec ID/Info : UTF-8 Plain Text
Language : Russian
Default : No
Forced : No

Text #3
ID : 6
Format : UTF-8
Codec ID : S_TEXT/UTF8
Codec ID/Info : UTF-8 Plain Text
Language : English
Default : No
Forced : No

Text #4
ID : 7
Format : UTF-8
Codec ID : S_TEXT/UTF8
Codec ID/Info : UTF-8 Plain Text
Title : SDH
Language : English
Default : No
Forced : No

Menu
00:00:00.000 : en:Chapter 1
00:10:11.818 : en:Chapter 2
00:21:05.137 : en:Chapter 3
00:29:20.924 : en:Chapter 4
00:42:44.893 : en:Chapter 5
00:50:05.793 : en:Chapter 6
01:03:19.461 : en:Chapter 7
01:12:43.942 : en:Chapter 8
01:20:40.417 : en:Chapter 9
01:27:14.520 : en:Chapter 10
01:32:44.350 : en:Chapter 11
01:39:02.603 : en:Chapter 12
x264 [info]: frame I:1473 Avg QP:17.27 size: 87227
x264 [info]: frame P:44274 Avg QP:21.42 size: 26770
x264 [info]: frame B:118030 Avg QP:21.66 size: 9819
x264 [info]: consecutive B-frames: 5.8% 4.9% 15.7% 26.7% 13.9% 21.4% 4.4% 2.0% 1.3% 1.1% 0.9% 0.6% 0.7% 0.5%
x264 [info]: mb I I16..4: 3.5% 72.2% 24.3%
x264 [info]: mb P I16..4: 0.5% 13.2% 2.1% P16..4: 28.9% 32.7% 12.9% 0.0% 0.0% skip: 9.7%
x264 [info]: mb B I16..4: 0.0% 1.8% 0.3% B16..8: 33.7% 21.4% 4.6% direct: 5.6% skip:32.6% L0:44.2% L1:42.6% BI:13.2%
x264 [info]: 8x8 transform intra:82.5% inter:59.9%
x264 [info]: direct mvs spatial:95.9% temporal:4.1%
x264 [info]: coded y,uvDC,uvAC intra: 94.5% 86.1% 62.5% inter: 29.9% 20.9% 9.1%
x264 [info]: i16 v,h,dc,p: 13% 18% 5% 64%
x264 [info]: i8 v,h,dc,ddl,ddr,vr,hd,vl,hu: 9% 8% 6% 10% 14% 12% 15% 11% 14%
x264 [info]: i4 v,h,dc,ddl,ddr,vr,hd,vl,hu: 11% 8% 4% 8% 16% 12% 17% 10% 14%
x264 [info]: i8c dc,h,v,p: 41% 25% 16% 18%
x264 [info]: Weighted P-Frames: Y:97.8% UV:1.9%
x264 [info]: ref P L0: 47.1% 12.2% 15.3% 6.5% 5.0% 3.5% 3.3% 2.1% 1.7% 1.4% 1.4% 0.4% 0.0%
x264 [info]: ref B L0: 67.6% 12.9% 6.8% 3.9% 2.5% 2.0% 1.9% 1.3% 0.6% 0.3%
x264 [info]: ref B L1: 91.1% 8.9%
x264 [info]: kb/s:2895.82
   
Торрент: Зарегистрирован [19 мар 2016, 01:28] Скачать торрент
Скачать торрент
[ Размер 15.15 КБ / Просмотров 242 ]

Статус:
 
Приватный: Нет (DHT включён)
Размер: 2.92 ГБ (3 130 313 339 байт)
   
Аватара пользователя

Администратор
Администратор
 
Раздал: 2.36 ПБ
Скачал: 1.02 ПБ
Ратио: 2.311
Сообщения: 3722
Зарегистрирован: 07 май 2010, 17:29
Medals: 1
Лучший релиз за месяц (1)
  • Личное сообщение
  • ICQ

Вернуться в Фильмы 2016 (новинки)

Кто сейчас на конференции

Зарегистрированные пользователи: нет зарегистрированных пользователей

Ресурс не предоставляет электронные версии произведений, а занимается лишь коллекционированием и каталогизацией ссылок, присылаемых и публикуемых на форуме нашими читателями. Если вы являетесь правообладателем какого-либо представленного материала и не желаете чтобы ссылка на него находилась в нашем каталоге, свяжитесь с нами и мы незамедлительно удалим её. Файлы для обмена на трекере предоставлены пользователями сайта, и администрация не несёт ответственности за их содержание. Просьба не заливать файлы, защищенные авторскими правами, а также файлы нелегального содержания!
cron