Эмили / Emelie (Майкл Фелин / Michael Thelin) [2015, США, триллер, WEB-DLRip] DVO (Parovoz Production) + Original Eng скачать торрент

Киноновинки, новинки кинопроката, горячие новинки, Русские новинки

Модератор: Модераторы видео

  • Статистика раздачи
Размер: 1.44 ГБ   |  Зарегистрирован: 19 мар 2016, 01:21   |   .torrent скачан: 2 раз
Сидеров: 13  [ 0 байт/сек ]     Личеров: 0  [ 0 байт/сек ]  
Список файлов : Кто скачал : Раздают : Скачивают : Кто благодарил : История : Не раздающие : Запрашивали сидеров : Внешние трекеры 
  

Эмили / Emelie (Майкл Фелин / Michael Thelin) [2015, США, триллер, WEB-DLRip] DVO (Parovoz Production) + Original Eng

Сообщение Админ » 19 мар 2016, 01:21

Эмили / Emelie


Страна: США
Жанр: триллер
Год выпуска: 2015
Продолжительность: 01:22:04

Перевод: Любительский (двухголосый закадровый) Parovoz Production
Cубтитры: нет
Оригинальная аудиодорожка: английский

Режиссер: Майкл Фелин / Michael Thelin

В ролях: Карли Адамс, Карл Бейли, Томас Баир, Крис Битем. Хизер Бенсон. Сара Болгер, Роберт Бозек, Дорин Донован Коркин, Майкл Джозеф Дуган, Данте Хоагленд

Описание: После того, как постоянная няня не смогла прийти, семья Томпсонов обращается к ее подруге Анне, чтобы контролировать детей, пока родители празднуют юбилей. Поначалу Анна кажется детям настоящим чудом — девушка разрешает играть с тем, с чем им обычно играть запрещено. Но постепенно поведение няни становится все более и более странным, и вскоре дети начинают понимать, что она — не тот человек, за которого себя выдает.

Релиз без вшитой рекламы!

Сэмпл: http://multi-up.com/1093590


Качество видео: WEB-DLRip
Формат видео: AVI

Видео: Xvid 720x304 23.976fps 2 121 Kbps
Аудио: Dolby AC3 48000Hz stereo 192kbps
Аудио 2: Dolby AC3 48000Hz stereo 192kbps
Format : AVI
Format/Info : Audio Video Interleave
File size : 1.44 GiB
Duration : 1h 22mn
Overall bit rate : 2 520 Kbps
Writing application : VirtualDubMod 1.5.10.3 | http://www.virtualdub-fr.org || (build 2550/release)
Writing library : VirtualDubMod build 2550/release

Video
ID : 0
Format : MPEG-4 Visual
Format profile : Advanced [email protected]
Format settings, BVOP : Yes
Format settings, QPel : No
Format settings, GMC : No warppoints
Format settings, Matrix : Custom
Codec ID : XVID
Codec ID/Hint : XviD
Duration : 1h 22mn
Bit rate : 2 121 Kbps
Width : 720 pixels
Height : 304 pixels
Display aspect ratio : 2.35:1
Frame rate : 23.976 fps
Color space : YUV
Chroma subsampling : 4:2:0
Bit depth : 8 bits
Scan type : Progressive
Compression mode : Lossy
Bits/(Pixel*Frame) : 0.404
Stream size : 1.22 GiB (84%)
Writing library : XviD 73

Audio #1
ID : 1
Format : AC-3
Format/Info : Audio Coding 3
Mode extension : CM (complete main)
Format settings, Endianness : Big
Codec ID : 2000
Duration : 1h 22mn
Bit rate mode : Constant
Bit rate : 192 Kbps
Channel count : 2 channels
Channel positions : Front: L R
Sampling rate : 48.0 KHz
Bit depth : 16 bits
Compression mode : Lossy
Stream size : 113 MiB (8%)
Alignment : Split accross interleaves
Interleave, duration : 42 ms (1.00 video frame)
Interleave, preload duration : 500 ms

Audio #2
ID : 2
Format : AC-3
Format/Info : Audio Coding 3
Mode extension : CM (complete main)
Format settings, Endianness : Big
Codec ID : 2000
Duration : 1h 22mn
Bit rate mode : Constant
Bit rate : 192 Kbps
Channel count : 2 channels
Channel positions : Front: L R
Sampling rate : 48.0 KHz
Bit depth : 16 bits
Compression mode : Lossy
Stream size : 113 MiB (8%)
Alignment : Split accross interleaves
Interleave, duration : 42 ms (1.00 video frame)
Interleave, preload duration : 500 ms
   
Торрент: Зарегистрирован [19 мар 2016, 01:21] Скачать торрент
Скачать торрент
[ Размер 14.88 КБ / Просмотров 223 ]

Статус:
 
Приватный: Нет (DHT включён)
Размер: 1.44 ГБ (1 550 753 792 байт)
   
Аватара пользователя

Администратор
Администратор
 
Раздал: 2.36 ПБ
Скачал: 1.02 ПБ
Ратио: 2.311
Сообщения: 3722
Зарегистрирован: 07 май 2010, 17:29
Medals: 1
Лучший релиз за месяц (1)
  • Личное сообщение
  • ICQ

Вернуться в Фильмы 2016 (новинки)

Кто сейчас на конференции

Зарегистрированные пользователи: нет зарегистрированных пользователей

Ресурс не предоставляет электронные версии произведений, а занимается лишь коллекционированием и каталогизацией ссылок, присылаемых и публикуемых на форуме нашими читателями. Если вы являетесь правообладателем какого-либо представленного материала и не желаете чтобы ссылка на него находилась в нашем каталоге, свяжитесь с нами и мы незамедлительно удалим её. Файлы для обмена на трекере предоставлены пользователями сайта, и администрация не несёт ответственности за их содержание. Просьба не заливать файлы, защищенные авторскими правами, а также файлы нелегального содержания!
cron