Статус: Свободен (2015) WEB-DLRip [H.264] скачать торрент

Киноновинки, новинки кинопроката, горячие новинки, Русские новинки

Модератор: Модераторы видео

  • Статистика раздачи
Размер: 1.46 ГБ   |  Зарегистрирован: 19 фев 2016, 20:46   |   .torrent скачан: 39 раз
Сидеров: 626  [ 0 байт/сек ]     Личеров: 16  [ 0 байт/сек ]  
Список файлов : Кто скачал : Раздают : Скачивают : Кто благодарил : История : Не раздающие : Запрашивали сидеров : Внешние трекеры 
  

Статус: Свободен (2015) WEB-DLRip [H.264]

Сообщение Админ » 19 фев 2016, 20:46

Статус: Свободен (2015) WEB-DLRip [H.264]

Производство: Россия, Леополис
Жанр: Комедия, Мелодрама

Режиссер: Павел Руминов
Продюсер: Сергей Ливнев, Данила Козловский, Сергей Бобза
Актеры: Данила Козловский, Елизавета Боярская, Владимир Селезнев, Игорь Войнаровский, Наталья Анисимова, Паулина Андреева, Надежда Звенигородская, Милош Руминов, Михаил Крылов, Катрин Асси

Описание:
Никита и Афина — идеальная пара… Как палочки Твикс. Как Бред Питт и Анджелина Джоли. Но… только по мнению Никиты. Внезапно Афина сообщает, что уходит от него. Причем — к 40-летнему стоматологу. Никита не согласен с таким поворотом судьбы и обещает Афине, что вернет ее за неделю. Что готов сделать отчаянный стэндапер, чтобы вернуть свою любовь?



Возраст: 16+
Дата мировой премьеры: 21 января 2016
Дата премьеры в России: 21 января 2016, «Каропрокат»

Продолжительность: 01:38:48
Качество видео: WEB-DLRip
Перевод: Не требуется (русский) iTunes
Вид субтитров: Отсутствуют

Видео: AVC/H.264, 1024x428 (2.40:1), 1729 kb/s
Аудио: 48 kHz, AC3 Dolby Digital, 3/2 (L,C,R,l,r) + LFE ch, ~384 kbps
Семпл: Скачать
Код: Выделить всё
Общее
Уникальный идентификатор                 : 188759590928243062102988176148343121164 (0x8E01C65C4D030599A77F05179919650C)
Полное имя                               : D:\Релизы\Статус.Свободен.2015.WEB-DLRip.nnm-club.mkv
Формат                                   : Matroska
Версия формата                           : Version 2
Размер файла                             : 1,46 Гбайт
Продолжительность                        : 1 ч. 38 м.
Общий поток                              : 2112 Кбит/сек
Название фильма                          : Статус.Свободен.2015.WEB-DLRip.nnm-club
Дата кодирования                         : UTC 2016-02-19 10:34:53
Программа кодирования                    : mkvmerge v8.3.0 ('Over the Horizon') 64bit
Библиотека кодирования                   : libebml v1.3.1 + libmatroska v1.4.2

Видео
Идентификатор                            : 1
Формат                                   : AVC
Формат/Информация                        : Advanced Video Codec
Профиль формата                          :
Параметр CABAC формата                   : Да
Параметр ReFrames формата                : 12 кадров
Идентификатор кодека                     : V_MPEG4/ISO/AVC
Продолжительность                        : 1 ч. 38 м.
Битрейт                                  : 1729 Кбит/сек
Ширина                                   : 1024 пикселя
Высота                                   : 428 пикселей
Соотношение сторон                       : 2,40:1
Режим частоты кадров                     : Постоянный
Частота кадров                           : 24,000 кадра/сек
Цветовое пространство                    : YUV
Субдискретизация насыщенности            : 4:2:0
Битовая глубина                          : 8 бит
Тип развёртки                            : Прогрессивная
Бит/(Пиксели*Кадры)                      : 0.164
Размер потока                            : 1,16 Гбайт (80%)
Заголовок                                : Статус.Свободен.2015.WEB-DLRip.nnm-club
Библиотека кодирования                   : x264 core 146 r2538 121396c
Настройки программы                      : cabac=1 / ref=12 / deblock=1:-3:-3 / analyse=0x3:0x113 / me=umh / subme=11 / psy=1 / psy_rd=1.00:0.00 / mixed_ref=1 / me_range=48 / chroma_me=1 / trellis=2 / 8x8dct=1 / cqm=0 / deadzone=21,11 / fast_pskip=0 / chroma_qp_offset=-2 / threads=12 / lookahead_threads=3 / sliced_threads=0 / nr=0 / decimate=1 / interlaced=0 / bluray_compat=0 / constrained_intra=0 / bframes=13 / b_pyramid=2 / b_adapt=2 / b_bias=0 / direct=3 / weightb=1 / open_gop=0 / weightp=2 / keyint=240 / keyint_min=23 / scenecut=40 / intra_refresh=0 / rc_lookahead=40 / rc=2pass / mbtree=1 / bitrate=1729 / ratetol=1.0 / qcomp=0.60 / qpmin=0 / qpmax=69 / qpstep=4 / cplxblur=20.0 / qblur=0.5 / vbv_maxrate=14000 / vbv_bufsize=14000 / nal_hrd=none / filler=0 / ip_ratio=1.40 / aq=1:1.00
Default                                  : Да
Forced                                   : Нет

Аудио
Идентификатор                            : 2
Формат                                   : AC-3
Формат/Информация                        : Audio Coding 3
Расширение режима                        : CM (complete main)
Параметр Endianness формата              : Big
Идентификатор кодека                     : A_AC3
Продолжительность                        : 1 ч. 38 м.
Вид битрейта                             : Постоянный
Битрейт                                  : 384 Кбит/сек
Каналы                                   : 6 каналов
Расположение каналов                     : Front: L C R, Side: L R, LFE
Частота                                  : 48,0 КГц
Метод сжатия                             : С потерями
Размер потока                            : 271 Мбайт (18%)
Заголовок                                : iTunes
Язык                                     : Russian
Default                                  : Да
Forced                                   : Нет

Меню
00:00:00.000                             : en:Глава 1
00:07:17.458                             : en:Глава 2
00:12:47.666                             : en:Глава 3
00:19:18.749                             : en:Глава 4
00:25:54.999                             : en:Глава 5
00:30:58.832                             : en:Глава 6
00:37:33.373                             : en:Глава 7
00:42:50.914                             : en:Глава 8
00:48:59.664                             : en:Глава 9
00:54:10.747                             : en:Глава 10
01:00:01.663                             : en:Глава 11
01:05:25.413                             : en:Глава 12
01:10:46.371                             : en:Глава 13
01:16:50.912                             : en:Глава 14
01:23:10.828                             : en:Глава 15
01:28:25.911                             : en:Глава 16

Скриншоты:

Время раздачи: 24/7 (до появления первых 3-5 скачавших)
   
Торрент: Зарегистрирован [19 фев 2016, 20:46] Скачать торрент
Скачать торрент
[ Размер 15.3 КБ / Просмотров 275 ]

Статус:
 
Приватный: Нет (DHT включён)
Размер: 1.46 ГБ (1 564 919 264 байт)
   
Аватара пользователя

Администратор
Администратор
 
Раздал: 2.36 ПБ
Скачал: 1.02 ПБ
Ратио: 2.311
Сообщения: 3722
Зарегистрирован: 07 май 2010, 17:29
Medals: 1
Лучший релиз за месяц (1)
  • Личное сообщение
  • ICQ

Вернуться в Фильмы 2016 (новинки)

Кто сейчас на конференции

Зарегистрированные пользователи: нет зарегистрированных пользователей

cron
Ресурс не предоставляет электронные версии произведений, а занимается лишь коллекционированием и каталогизацией ссылок, присылаемых и публикуемых на форуме нашими читателями. Если вы являетесь правообладателем какого-либо представленного материала и не желаете чтобы ссылка на него находилась в нашем каталоге, свяжитесь с нами и мы незамедлительно удалим её. Файлы для обмена на трекере предоставлены пользователями сайта, и администрация не несёт ответственности за их содержание. Просьба не заливать файлы, защищенные авторскими правами, а также файлы нелегального содержания!
cron