Статус: Свободен (2015) WEB-DL [1080p] ATV скачать торрент

Киноновинки, новинки кинопроката, горячие новинки, Русские новинки

Модератор: Модераторы видео

  • Статистика раздачи
Размер: 3.41 ГБ   |  Зарегистрирован: 19 фев 2016, 20:45   |   .torrent скачан: 16 раз
Сидеров: 49  [ 0 байт/сек ]     Личеров: 0  [ 0 байт/сек ]  
Список файлов : Кто скачал : Раздают : Скачивают : Кто благодарил : История : Не раздающие : Запрашивали сидеров : Внешние трекеры 
  

Статус: Свободен (2015) WEB-DL [1080p] ATV

Сообщение Админ » 19 фев 2016, 20:45

Статус: Свободен (2015) WEB-DL [1080p] ATV

-
Год выпуска: 2015
Производство: Россия
Жанр: Комедия, мелодрама
Продолжительность: 01:38:48

Перевод: Не требуется
Субтитры: Нет
Режиссер: Павел Руминов
Актеры: Данила Козловский, Елизавета Боярская, Владимир Селезнев, Игорь Войнаровский, Наталья Анисимова, Паулина Андреева, Надежда Звенигородская, Милош Руминов, Михаил Крылов, Катрин Асси

Премьера (РФ): 21 января 2016, «Каропрокат»



Описание: Никита и Афина — идеальная пара… Как палочки Твикс. Как Бред Питт и Анджелина Джоли. Но… только по мнению Никиты. Внезапно Афина сообщает, что уходит от него. Причем — к 40-летнему стоматологу. Никита не согласен с таким поворотом судьбы и обещает Афине, что вернет ее за неделю. Что готов сделать отчаянный стэндапер, чтобы вернуть свою любовь?
Качество: WEB-DL 1080p
Контейнер: M4V
Видео: H.264, 1920x804, 2.40:1, 4 400 Kbps, 24.000 fps

Аудио 1: Русский/Оригинальная дорожка , AAC / 2.0 / 157 Kbps / 48.0 KHz
Аудио 2: Русский/Оригинальная дорожка , AC-3 / 5.1 / 384 Kbps / 48.0 KHz
Код:
Код: Выделить всё
Sort Name: Статус: Свободен
XID: Apple:vendor_id:2015-838856
contentID: 1076586829
Copyright: © 2016 Каропрокат
Screenwriters: Павел Руминов
Producers: Сергей Ливнев, Данила Козловский, Сергей Бобза
Director: Павел Руминов
Cast: Данила Козловский, Елизавета Боярская, Владимир Селезнев, Игорь Войнаровский, Наталья Анисимова, Паулина Андреева, Надежда Звенигородская, Милош Руминов, Михаил Крылов, Катрин Асси
Studio: Леополис
Rating: 135
Long Description: Никита и Афина - идеальная пара... Как палочки Твикс. Как Бред Питт и Анджелина Джоли. Но... только по мнению Никиты. Внезапно Афина сообщает, что уходит от него. Причем - к 40-летнему стоматологу. Никита не согласен с таким поворотом судьбы и обещает Афине, что вернет ее за неделю. Что готов сделать отчаянный стэндапер, чтобы вернуть свою любовь?
Description: Никита и Афина - идеальная пара... Как палочки Твикс. Как Бред Питт и Анджелина Джоли. Но... только по мнению Никиты. Внезапно Афина сообщает, что уходит от него. Причем - к 40-летнему стоматологу. Никита не согласен с таким поворотом судьбы и обещает Афине, что вернет ее за неделю. Что готов сделать отчаянный стэндапер, чтобы вернуть свою любовь?
Release Date: 2016-01-21T08:00:00Z
Genre: Комедии
Artist: Павел Руминов
Name: Статус: Свободен

Код:
Код: Выделить всё
General
Complete name : /Users/imac/HandBrake/Status.Svoboden.WEB-DL.1080p.m4v
Format : MPEG-4
Codec ID : M4V  (M4V /M4A /mp42/isom)
File size : 3.41 GiB
Duration : 1h 38mn
Overall bit rate mode : Variable
Overall bit rate : 4 947 Kbps
Movie name : Статус: Свободен
Performer : Павел Руминов
Director : Павел Руминов
Actor : Данила Козловский / Елизавета Боярская / Владимир Селезнев / Игорь Войнаровский / Наталья Анисимова / Паулина Андреева / Надежда Звенигородская / Милош Руминов / Михаил Крылов / Катрин Асси
Screenplay by : Павел Руминов
Producer : Сергей Ливнев / Данила Козловский / Сергей Бобза
Production studio : Леополис
Genre : Комедии
ContentType : Short Film
Description : Никита и Афина - идеальная пара... Как палочки Твикс. Как Бред Питт и Анджелина Джоли. Но... только по мнению Никиты. Внезапно Афина сообщает, что уходит от него. Причем - к 40-летнему стоматологу. Никита не согласен с таким поворотом судьбы и обещает Афине, что вернет ее за неделю. Что готов сделать отчаянный стэндапер, чтобы вернуть свою любовь?
Recorded date : UTC 2016-01-21 08:00:00
Encoded date : UTC 2016-02-19 08:48:12
Tagged date : UTC 2016-02-19 08:49:58
Copyright : © 2016 Каропрокат
Cover : Yes
Rating : None
Title/Sort : Статус: Свободен
LongDescription : Никита и Афина - идеальная пара... Как палочки Твикс. Как Бред Питт и Анджелина Джоли. Но... только по мнению Никиты. Внезапно Афина сообщает, что уходит от него. Причем - к 40-летнему стоматологу. Никита не согласен с таким поворотом судьбы и обещает Афине, что вернет ее за неделю. Что готов сделать отчаянный стэндапер, чтобы вернуть свою любовь?
AppleStoreCatalogID : 1076586829
Vendor : Apple:vendor_id:2015-838856
ContentRating : ru-movie|16+|375|

Video #1
ID : 1
Format : AVC
Format/Info : Advanced Video Codec
Format profile : [email protected]
Format settings, CABAC : Yes
Format settings, ReFrames : 5 frames
Codec ID : avc1
Codec ID/Info : Advanced Video Coding
Duration : 1h 38mn
Bit rate : 4 400 Kbps
Width : 1 920 pixels
Height : 804 pixels
Display aspect ratio : 2.40:1
Frame rate mode : Variable
Frame rate : 24.000 fps
Minimum frame rate : 23.810 fps
Maximum frame rate : 24.390 fps
Color space : YUV
Chroma subsampling : 4:2:0
Bit depth : 8 bits
Scan type : Progressive
Bits/(Pixel*Frame) : 0.119
Stream size : 3.04 GiB (89%)
Title : Main Program
Language : Russian
Encoded date : UTC 2016-02-19 08:48:12
Tagged date : UTC 2016-02-19 08:48:17
Color range : Limited
Color primaries : BT.709
Transfer characteristics : BT.709
Matrix coefficients : BT.709
Menus : 4,5

Video #2
ID : 5
Format : JPEG
Codec ID : jpeg
Duration : 1h 38mn
Bit rate mode : Variable
Bit rate : 853 bps
Width : 640 pixels
Height : 268 pixels
Display aspect ratio : 2.40:1
Frame rate mode : Variable
Frame rate : 0.003 fps
Minimum frame rate : 0.002 fps
Maximum frame rate : 0.003 fps
Color space : YUV
Chroma subsampling : 4:2:0
Bit depth : 8 bits
Compression mode : Lossy
Bits/(Pixel*Frame) : 1.658
Stream size : 555 KiB (0%)
Title : Chapter Images
Language : Russian
Default : No
Encoded date : UTC 2016-02-19 08:48:24
Tagged date : UTC 2016-02-19 08:48:24
Menu For : 1

Audio #1
ID : 2
Format : AAC
Format/Info : Advanced Audio Codec
Format profile : LC
Codec ID : 40
Duration : 1h 38mn
Bit rate mode : Variable
Bit rate : 157 Kbps
Maximum bit rate : 245 Kbps
Channel(s) : 2 channels
Channel positions : Front: L R
Sampling rate : 48.0 KHz
Frame rate : 46.875 fps (1024 spf)
Compression mode : Lossy
Stream size : 111 MiB (3%)
Title : Russian Stereo
Language : Russian
Default : Yes
Alternate group : 1
Encoded date : UTC 2016-02-19 08:48:12
Tagged date : UTC 2016-02-19 08:48:19
Fallback From : 3

Audio #2
ID : 3
Format : AC-3
Format/Info : Audio Coding 3
Mode extension : CM (complete main)
Format settings, Endianness : Big
Codec ID : ac-3
Duration : 1h 38mn
Bit rate mode : Constant
Bit rate : 384 Kbps
Channel(s) : 6 channels
Channel positions : Front: L C R, Side: L R, LFE
Sampling rate : 48.0 KHz
Frame rate : 31.250 fps (1536 spf)
Bit depth : 16 bits
Compression mode : Lossy
Stream size : 271 MiB (8%)
Title : Russian DD 5.1
Language : Russian
Default : Inherited From: 2
Alternate group : 1
Encoded date : UTC 2016-02-19 08:48:12
Tagged date : UTC 2016-02-19 08:48:18
Fallback To : 2

Menu #1
00:00:00.000 : Глава 1
00:07:17.458 : Глава 2
00:12:47.666 : Глава 3
00:19:18.749 : Глава 4
00:25:54.999 : Глава 5
00:30:58.832 : Глава 6
00:37:33.373 : Глава 7
00:42:50.914 : Глава 8
00:48:59.664 : Глава 9
00:54:10.747 : Глава 10
01:00:01.663 : Глава 11
01:05:25.413 : Глава 12
01:10:46.371 : Глава 13
01:16:50.912 : Глава 14
01:23:10.828 : Глава 15
01:28:25.911 : Глава 16

Menu #2
ID : 4
Codec ID : text
Duration : 1h 38mn
Language : Russian
Encoded date : UTC 2016-02-19 08:48:19
Tagged date : UTC 2016-02-19 08:48:19
Menu For : 1
00:00:00.000 : Глава 1
00:07:17.458 : Глава 2
00:12:47.666 : Глава 3
00:19:18.749 : Глава 4
00:25:54.999 : Глава 5
00:30:58.832 : Глава 6
00:37:33.373 : Глава 7
00:42:50.914 : Глава 8
00:48:59.664 : Глава 9
00:54:10.747 : Глава 10
01:00:01.663 : Глава 11
01:05:25.413 : Глава 12
01:10:46.371 : Глава 13
01:16:50.912 : Глава 14
01:23:10.828 : Глава 15
01:28:25.911 : Глава 16
Bit rate mode : VBR
Скриншоты:


Релиз подготовлен для просмотра на Apple TV, iPad, iPhone, iPod Touch.
Для просмотра данного релиза на компьютере с ОС Windows рекомендуется использовать VLC media player
   
Торрент: Зарегистрирован [19 фев 2016, 20:45] Скачать торрент
Скачать торрент
[ Размер 34.86 КБ / Просмотров 222 ]

Статус:
 
Приватный: Нет (DHT включён)
Размер: 3.41 ГБ (3 666 217 016 байт)
   
Аватара пользователя

Администратор
Администратор
 
Раздал: 2.36 ПБ
Скачал: 1.02 ПБ
Ратио: 2.311
Сообщения: 3722
Зарегистрирован: 07 май 2010, 17:29
Medals: 1
Лучший релиз за месяц (1)
  • Личное сообщение
  • ICQ

  • Похожие торренты
    Ответы
    Просмотры
    Последнее сообщение

Вернуться в Фильмы 2016 (новинки)

Кто сейчас на конференции

Зарегистрированные пользователи: нет зарегистрированных пользователей

Ресурс не предоставляет электронные версии произведений, а занимается лишь коллекционированием и каталогизацией ссылок, присылаемых и публикуемых на форуме нашими читателями. Если вы являетесь правообладателем какого-либо представленного материала и не желаете чтобы ссылка на него находилась в нашем каталоге, свяжитесь с нами и мы незамедлительно удалим её. Файлы для обмена на трекере предоставлены пользователями сайта, и администрация не несёт ответственности за их содержание. Просьба не заливать файлы, защищенные авторскими правами, а также файлы нелегального содержания!
cron