Мафия: Игра на выживание (2015) WEB-DL [H.264/1080p-LQ] скачать торрент

Киноновинки, новинки кинопроката, горячие новинки, Русские новинки

Модератор: Модераторы видео

  • Статистика раздачи
Размер: 3.05 ГБ   |  Зарегистрирован: 13 фев 2016, 01:15   |   .torrent скачан: 49 раз
Сидеров: 566  [ 0 байт/сек ]     Личеров: 8  [ 0 байт/сек ]  
Список файлов : Кто скачал : Раздают : Скачивают : Кто благодарил : История : Не раздающие : Запрашивали сидеров : Внешние трекеры 
  

Мафия: Игра на выживание (2015) WEB-DL [H.264/1080p-LQ]

Сообщение Админ » 13 фев 2016, 01:15

Мафия: Игра на выживание (2015) WEB-DL [H.264/1080p-LQ]

Производство: Россия
Жанр: Фантастика, боевик

Режиссер: Сарик Андреасян
Продюсер: Сарик Андреасян, Гевонд Андреасян, Владимир Поляков,
Актеры: Виктор Вержбицкий, Вениамин Смехов, Юрий Чурсин, Вячеслав Разбегаев, Ольга Тумайкина, Андрей Чадов, Вадим Цаллати, Виолетта Гетманская, Наталья Рудова, Евгений Коряковский

Описание:
Москва. Далекое будущее. Карточная игра МАФИЯ стала самым популярным в мире телешоу. Одиннадцать человек соберутся за столом, чтобы выяснить — кто из них Мирный Житель, а кто безжалостная МАФИЯ. На глазах всего мира готовится коктейль из эмоций и чувств: хитрости, страха, лжи, ненависти, презрения, боли, гордости, страсти, любви и смерти. Ведь выигравший в схватке получит огромный денежный приз, а проигравший просто умрет…


Дата мировой премьеры: 1 января 2016
Дата премьеры в России: 1 января 2016, «Каропрокат»

Продолжительность: 01:30:40
Качество видео: WEB-DL 1080p-LQ
Перевод: Не требуется (русский) iTunes
Субтитры: Отсутствуют

Видео: MPEG-4 AVC/H.264, 1912x792 , ~ 4332 kbps
Аудио: AC3, 6 ch, 384 kbps
Семпл: Скачать
Код:
Код: Выделить всё
Общее
Уникальный идентификатор                 : 174544209214785833381224168847007683883 (0x834FFDEE1DBE5D008AF6288D570E152B)
Полное имя                               : Maf1a.2015.WEB-DL.1080p.nnm-club.mkv
Формат                                   : Matroska
Версия формата                           : Version 4 / Version 2
Размер файла                             : 3,05 Гбайт
Продолжительность                        : 1 ч. 30 м.
Общий поток                              : 4817 Кбит/сек
Дата кодирования                         : UTC 2016-02-11 22:41:42
Программа кодирования                    : mkvmerge v7.7.0 ('Six Voices') 64bit built on Feb 28 2015 23:39:33
Библиотека кодирования                   : libebml v1.3.1 + libmatroska v1.4.2

Видео
Идентификатор                            : 1
Формат                                   : AVC
Формат/Информация                        : Advanced Video Codec
Профиль формата                          : [email protected]
Параметр CABAC формата                   : Да
Параметр ReFrames формата                : 5 кадров
Идентификатор кодека                     : V_MPEG4/ISO/AVC
Продолжительность                        : 1 ч. 30 м.
Битрейт                                  : 4432 Кбит/сек
Ширина                                   : 1912 пикселей
Высота                                   : 792 пикселя
Соотношение сторон                       : 2,40:1
Режим частоты кадров                     : Постоянный
Частота кадров                           : 24,000 кадра/сек
Цветовое пространство                    : YUV
Субдискретизация насыщенности            : 4:2:0
Битовая глубина                          : 8 бит
Тип развёртки                            : Прогрессивная
Бит/(Пиксели*Кадры)                      : 0.122
Размер потока                            : 2,81 Гбайт (92%)
Язык                                     : English
Default                                  : Да
Forced                                   : Нет
colour_range                             : Limited
Основные цвета                           : BT.709
Характеристики трансфера                 : BT.709
Коэффициенты матрицы                     : BT.709

Аудио
Идентификатор                            : 2
Формат                                   : AC-3
Формат/Информация                        : Audio Coding 3
Расширение режима                        : CM (complete main)
Параметр Endianness формата              : Big
Идентификатор кодека                     : A_AC3
Продолжительность                        : 1 ч. 30 м.
Вид битрейта                             : Постоянный
Битрейт                                  : 384 Кбит/сек
Каналы                                   : 6 каналов
Расположение каналов                     : Front: L C R, Side: L R, LFE
Частота                                  : 48,0 КГц
Частота кадров                           : 31,250 кадров/сек (1536 spf)
Метод сжатия                             : С потерями
Размер потока                            : 249 Мбайт (8%)
Заголовок                                : iTunes
Язык                                     : Russian
Default                                  : Да
Forced                                   : Нет

Меню
00:00:00.000                             : en:1
00:02:59.000                             : en:2
00:11:45.000                             : en:3
00:22:40.000                             : en:4
00:27:39.000                             : en:5
00:36:05.000                             : en:6
00:43:30.000                             : en:7
00:54:40.000                             : en:8
01:05:18.000                             : en:9
01:13:28.000                             : en:10
01:20:43.000                             : en:11
01:26:33.000                             : en:12

Скриншоты:



Время раздачи:
24/7. До первых 10 скачавших
   
Торрент: Зарегистрирован [13 фев 2016, 01:15] Скачать торрент
Скачать торрент
[ Размер 16.09 КБ / Просмотров 328 ]

Статус:
 
Приватный: Нет (DHT включён)
Размер: 3.05 ГБ (3 275 840 761 байт)
   
Аватара пользователя

Администратор
Администратор
 
Раздал: 2.36 ПБ
Скачал: 1.02 ПБ
Ратио: 2.311
Сообщения: 3722
Зарегистрирован: 07 май 2010, 17:29
Medals: 1
Лучший релиз за месяц (1)
  • Личное сообщение
  • ICQ

  • Похожие торренты
    Ответы
    Просмотры
    Последнее сообщение

Вернуться в Фильмы 2016 (новинки)

Кто сейчас на конференции

Зарегистрированные пользователи: нет зарегистрированных пользователей

Ресурс не предоставляет электронные версии произведений, а занимается лишь коллекционированием и каталогизацией ссылок, присылаемых и публикуемых на форуме нашими читателями. Если вы являетесь правообладателем какого-либо представленного материала и не желаете чтобы ссылка на него находилась в нашем каталоге, свяжитесь с нами и мы незамедлительно удалим её. Файлы для обмена на трекере предоставлены пользователями сайта, и администрация не несёт ответственности за их содержание. Просьба не заливать файлы, защищенные авторскими правами, а также файлы нелегального содержания!
cron