(OST) VA - Battlefield Vietnam (Original Official Soundtrack) [2004 , FLAC (tracks+ .cue), lossless] скачать торрент

Модератор: Модераторы музыки

  • Статистика раздачи
Размер: 159.78 МБ   |  Зарегистрирован: 23 апр 2016, 18:34   |   .torrent скачан: 0 раз
Сидеров: 0  [ 0 байт/сек ]     Личеров: 0  [ 0 байт/сек ]  
Список файлов : Кто скачал : Раздают : Скачивают : Кто благодарил : История : Не раздающие : Запрашивали сидеров : Внешние трекеры 
  

(OST) VA - Battlefield Vietnam (Original Official Soundtrack) [2004 , FLAC (tracks+ .cue), lossless]

Сообщение FaNaTiK » 23 апр 2016, 18:34

Название/Исполнитель: VA
Альбом: Battlefield Vietnam (Original Official Soundtrack)
Год выпуска диска: 2004
Жанр: Soundtrack
Тип саундтрека: OST


Формат/Кодек: FLAC (tracks+ .cue)
Битрейт аудио: lossless
Продолжительность: 00:31:56


01 - Edwin Starr - War
02 - The Trashmen - Surfin Bird
03 - The Troggs - Wild Thing
04 - Deep Purple - Hush
05 - Jefferson Airplane - Somebody to Love
06 - Canned Heat - On the Road Again
07 - The Bobby Fuller Four - I Fought the Law
08 - The Guess Who - Shakin' All Over
09 - Rare Earth - Get Ready
10 - The Box Tops - The Letter
11 - Martha and The Vandellas - Nowhere to Run



Exact Audio Copy V0.99 prebeta 5 from 4. May 2009

EAC extraction logfile from 9. January 2010, 16:42

Various / Battlefield Vietnam

Used drive : HL-DT-STBDDVDRW GGC-H20L Adapter: 3 ID: 0

Read mode : Secure
Utilize accurate stream : Yes
Defeat audio cache : Yes
Make use of C2 pointers : No

Read offset correction : 667
Overread into Lead-In and Lead-Out : No
Fill up missing offset samples with silence : Yes
Delete leading and trailing silent blocks : No
Null samples used in CRC calculations : Yes
Used interface : Native Win32 interface for Win NT & 2000
Gap handling : Appended to previous track

Used output format : User Defined Encoder
Selected bitrate : 320 kBit/s
Quality : High
Add ID3 tag : No
Command line compressor : C:\Program Files (x86)\Exact Audio Copy\Flac\flac.exe
Additional command line options : -V -8 -T "artist=%a" -T "title=%t" -T "album=%g" -T "date=%y" -T "tracknumber=%n" -T "genre=%m" %s

TOC of the extracted CD

Track | Start | Length | Start sector | End sector
---------------------------------------------------------
1 | 0:00.00 | 3:28.25 | 0 | 15624
2 | 3:28.25 | 2:23.62 | 15625 | 26411
3 | 5:52.12 | 2:39.10 | 26412 | 38346
4 | 8:31.22 | 4:17.01 | 38347 | 57622
5 | 12:48.23 | 2:57.11 | 57623 | 70908
6 | 15:45.34 | 3:24.48 | 70909 | 86256
7 | 19:10.07 | 2:21.61 | 86257 | 96892
8 | 21:31.68 | 2:43.05 | 96893 | 109122
9 | 24:14.73 | 2:50.64 | 109123 | 121936
10 | 27:05.62 | 1:56.52 | 121937 | 130688
11 | 29:02.39 | 2:53.66 | 130689 | 143729

Track 1

Filename C:\FLAC Rips\Battlefield Vietnam - 2004\01 - Edwin Starr - War.wav

Pre-gap length 0:00:02.00

Peak level 100.0 %
Track quality 100.0 %
Test CRC 2878F3FA
Copy CRC 2878F3FA
Accurately ripped (confidence 2) [0A6C6789]
Copy OK

Track 2

Filename C:\FLAC Rips\Battlefield Vietnam - 2004\02 - The Trashmen - Surfin Bird.wav

Pre-gap length 0:00:02.00

Peak level 100.0 %
Track quality 100.0 %
Test CRC 0A3DB512
Copy CRC 0A3DB512
Accurately ripped (confidence 2) [B0E3F97D]
Copy OK

Track 3

Filename C:\FLAC Rips\Battlefield Vietnam - 2004\03 - The Troggs - Wild Thing.wav

Pre-gap length 0:00:02.00

Peak level 99.3 %
Track quality 100.0 %
Test CRC 8E090D5C
Copy CRC 8E090D5C
Accurately ripped (confidence 2) [251138AF]
Copy OK

Track 4

Filename C:\FLAC Rips\Battlefield Vietnam - 2004\04 - Deep Purple - Hush.wav

Pre-gap length 0:00:02.00

Peak level 94.5 %
Track quality 99.9 %
Test CRC 25F3322E
Copy CRC 25F3322E
Accurately ripped (confidence 2) [D6E4728B]
Copy OK

Track 5

Filename C:\FLAC Rips\Battlefield Vietnam - 2004\05 - Jefferson Airplane - Somebody to Love.wav

Pre-gap length 0:00:02.00

Peak level 97.9 %
Track quality 100.0 %
Test CRC BB768768
Copy CRC BB768768
Accurately ripped (confidence 2) [AAC2676E]
Copy OK

Track 6

Filename C:\FLAC Rips\Battlefield Vietnam - 2004\06 - Canned Heat - On the Road Again.wav

Pre-gap length 0:00:02.00

Peak level 100.0 %
Track quality 100.0 %
Test CRC 950B868B
Copy CRC 950B868B
Accurately ripped (confidence 2) [BAECBD9B]
Copy OK

Track 7

Filename C:\FLAC Rips\Battlefield Vietnam - 2004\07 - The Bobby Fuller Four - I Fought the Law.wav

Pre-gap length 0:00:02.00

Peak level 98.9 %
Track quality 100.0 %
Test CRC 49FD74C7
Copy CRC 49FD74C7
Accurately ripped (confidence 2) [A13CFC97]
Copy OK

Track 8

Filename C:\FLAC Rips\Battlefield Vietnam - 2004\08 - The Guess Who - Shakin' All Over.wav

Pre-gap length 0:00:02.00

Peak level 100.0 %
Track quality 100.0 %
Test CRC E9D9ADDF
Copy CRC E9D9ADDF
Accurately ripped (confidence 2) [20C54C7D]
Copy OK

Track 9

Filename C:\FLAC Rips\Battlefield Vietnam - 2004\09 - Rare Earth - Get Ready.wav

Pre-gap length 0:00:02.00

Peak level 100.0 %
Track quality 100.0 %
Test CRC 7826A526
Copy CRC 7826A526
Accurately ripped (confidence 2) [562D57DA]
Copy OK

Track 10

Filename C:\FLAC Rips\Battlefield Vietnam - 2004\10 - The Box Tops - The Letter.wav

Pre-gap length 0:00:02.00

Peak level 98.0 %
Track quality 100.0 %
Test CRC 39C92DE9
Copy CRC 39C92DE9
Accurately ripped (confidence 2) [536FFFA1]
Copy OK

Track 11

Filename C:\FLAC Rips\Battlefield Vietnam - 2004\11 - Martha and The Vandellas - Nowhere to Run.wav

Pre-gap length 0:00:02.00

Peak level 100.0 %
Track quality 100.0 %
Test CRC 7B9DCEC5
Copy CRC 7B9DCEC5
Accurately ripped (confidence 2) [3D6718B8]
Copy OK

All tracks accurately ripped

No errors occurred

End of status report
   
Торрент: Зарегистрирован [23 апр 2016, 18:34] Скачать торрент
Скачать торрент
О MediaGet
[ Размер 13.7 КБ / Просмотров 72 ]

Статус:
 
Приватный: Нет (DHT включён)
Размер: 159.78 МБ (167 537 294 байт)
   
Аватара пользователя

Модератор музыки
Модератор музыки
 
Раздал: 19.27 ТБ
Скачал: 756.17 МБ
Ратио: None.
Сообщения: 2050
Фото: 7
Зарегистрирован: 13 ноя 2013, 17:22
Откуда: Дмитров
Medals: 2
Лучший релиз за год (1) 1000 раздач! (1)
  • Личное сообщение
  • Сайт

  • Похожие торренты
    Ответы
    Просмотры
    Последнее сообщение

Вернуться в Lossless

Кто сейчас на конференции

Зарегистрированные пользователи: AlexMTS

cron
Ресурс не предоставляет электронные версии произведений, а занимается лишь коллекционированием и каталогизацией ссылок, присылаемых и публикуемых на форуме нашими читателями. Если вы являетесь правообладателем какого-либо представленного материала и не желаете чтобы ссылка на него находилась в нашем каталоге, свяжитесь с нами и мы незамедлительно удалим её. Файлы для обмена на трекере предоставлены пользователями сайта, и администрация не несёт ответственности за их содержание. Просьба не заливать файлы, защищенные авторскими правами, а также файлы нелегального содержания!