Бэтмен против Супермена: На заре справедливости / Batman v Superman: Dawn of Justice (2016) WEBRip [H.264/1080p] [Трейлер#3] скачать торрент

Модератор: Модераторы аниме

  • Статистика раздачи
Размер: 283.33 МБ   |  Зарегистрирован: 22 фев 2016, 20:25   |   .torrent скачан: 6 раз
Сидеров: 19  [ 0 байт/сек ]     Личеров: 0  [ 0 байт/сек ]  
Список файлов : Кто скачал : Раздают : Скачивают : Кто благодарил : История : Не раздающие : Запрашивали сидеров : Внешние трекеры 
  

Бэтмен против Супермена: На заре справедливости / Batman v Superman: Dawn of Justice (2016) WEBRip [H.264/1080p] [Трейлер#3]

Сообщение Админ » 22 фев 2016, 20:25

Бэтмен против Супермена: На заре справедливости / Batman v Superman: Dawn of Justice (2016)

Год выпуска: 2016
Производство: США / DC Entertainment, Dune Entertainment, Syncopy
Жанр: фантастика, боевик

Режиссер: Зак Снайдер
Актеры: Генри Кавилл, Бен Аффлек, Галь Гадот, Джейсон Момоа, Эми Адамс, Джесси Айзенберг, Джена Мэлоун, Эзра Миллер, Дайан Лэйн, Джереми Айронс

Описание: Опасаясь, что действия богоподобного супергероя так и останутся бесконтрольными, грозный и могущественный страж Готэм Сити бросает вызов самому почитаемому в наши дни спасителю Метрополиса, в то время как весь остальной мир решает, какой герой ему по-настоящему нужен. И пока Бэтмен и Супермен пребывают в состоянии войны друг с другом, возникает новая угроза, которая ставит человечество под самую большую опасность, с которой оно когда-либо сталкивалось.



Дата мировой премьеры: 23 марта 2016
Дата российской премьеры: 25 марта 2016

Продолжительность: 00:02:13
Качество видео: WEBRip
Перевод: Дублированный

Видео: AVC, 1920x1080 (16:9), 25.000 fps, 18.0 Mbps (0.329 bit/pixel)
Аудио: AC-3, 48.0 KHz, 6 ch, 448 Kbps, CBR (Russian)
Код:
Код: Выделить всё
General
Unique ID                   : 23068551817163061033539817517294029266 (0x115AD76AB2B03354346D10704CDC09D2)
Complete name               : D:\BvS_DoJ_trailer3_rus_HD.mkv
Format                      : Matroska
Format version              : Version 4 / Version 2
File size                   : 283 MiB
Duration                    : 2mn 13s
Overall bit rate            : 17.9 Mbps
Writing application         : Lavf55.37.101
Writing library             : Lavf55.37.101

Video
ID                          : 1
Format                      : AVC
Format/Info                 : Advanced Video Codec
Format profile              :
Format settings, CABAC      : No
Format settings, ReFrames   : 1 frame
Codec ID                    : V_MPEG4/ISO/AVC
Duration                    : 2mn 13s
Bit rate                    : 17.1 Mbps
Nominal bit rate            : 18.0 Mbps
Width                       : 1 920 pixels
Height                      : 1 080 pixels
Display aspect ratio        : 16:9
Frame rate mode             : Constant
Frame rate                  : 25.000 fps
Color space                 : YUV
Chroma subsampling          : 4:2:0
Bit depth                   : 8 bits
Scan type                   : Progressive
Bits/(Pixel*Frame)          : 0.329
Stream size                 : 271 MiB (95%)
Writing library             : x264 core 119
Encoding settings           : cabac=0 / ref=1 / deblock=0:0:0 / analyse=0:0 / me=dia / subme=0 / psy=1 / psy_rd=1.00:0.00 / mixed_ref=0 / me_range=16 / chroma_me=1 / trellis=0 / 8x8dct=0 / cqm=0 / deadzone=21,11 / fast_pskip=1 / chroma_qp_offset=0 / threads=4 / sliced_threads=0 / nr=0 / decimate=1 / interlaced=0 / bluray_compat=0 / constrained_intra=0 / bframes=0 / weightp=0 / keyint=250 / keyint_min=25 / scenecut=0 / intra_refresh=0 / rc=abr / mbtree=0 / bitrate=18000 / ratetol=1.0 / qcomp=0.60 / qpmin=0 / qpmax=69 / qpstep=4 / ip_ratio=1.40 / aq=0
Default                     : Yes
Forced                      : No
HANDLER_NAME                : VideoHandler

Audio
ID                          : 2
Format                      : AC-3
Format/Info                 : Audio Coding 3
Mode extension              : CM (complete main)
Format settings, Endianness : Big
Codec ID                    : A_AC3
Duration                    : 2mn 13s
Bit rate mode               : Constant
Bit rate                    : 448 Kbps
Channel(s)                  : 6 channels
Channel positions           : Front: L C R, Side: L R, LFE
Sampling rate               : 48.0 KHz
Bit depth                   : 32 bits
Compression mode            : Lossy
Delay relative to video     : -5ms
Stream size                 : 7.11 MiB (3%)
Language                    : English
Default                     : Yes
Forced                      : No
Encoded date                : UTC 2016-02-17 08:11:44
HANDLER_NAME                : IsoMedia File Produced by Google, 5-11-2011
    В основу фильма легли комиксы «Batman: The Dark Knight Returns» (Бэтмен: Возвращение Темного рыцаря), «Kingdom Come» (Второе пришествие) и «Batman: Noel» (Бэтмен: Рождество).

    Рабочим названием фильма было «Сейдж и Майло» (Sage & Milo).

    Название фильма является отсылкой к «Лиге справедливости».

    Работу над фильмом начал Эндрю Кевин Уокер еще в августе 2001 года. Вольфганг Петерсен рассматривался на место режиссера, а Акива Голдсман — на место сценариста. По сценарию Голдсмана Джокер убивал невесту Брюса Уэйна, после чего Уэйн начинал буйствовать на почве мести, и в результате у них развивался конфликт с Суперменом, который пытался его остановить. Затем проект был заморожен, но в фильме «Я — легенда» (2007), сценаристом которого является Голдсман, в открывающей сцене, на стене одного из зданий зрители заметили плакат — знак Супермена на фоне знака Бэтмена.

    Ранее Бен Аффлек и Дайан Лэйн вместе снимались в фильме «Смерть супермена» (2006), где Аффлек сыграл Джорджа Ривза, актера известного по роли Супермена на телевидении.

    Джош Бролин, Райан Гослинг, Мэттью Гуд, Ричард Армитедж, Макс Мартини, Арми Хаммер, Дженсен Эклс и Джо Манганьелло рассматривались на роль Бэтмена, прежде чем ее получил Бен Аффлек.

    Сразу после того как выяснилось, что роль Бэтмена досталась Бену Аффлеку, он стал ежедневно проводить по два часа в тренажерном зале, чтобы набрать необходимую физическую форму для своей роли.

    Джейми Александер, Ольга Куриленко и Элоди Юнг прослушивались на роль Чудо Женщины прежде, чем она отошла Галь Гадот.

    Марк Стронг, Дензел Вашингтон, Идрис Эльба, Адам Драйвер и Хоакин Феникс рассматривались на роль Лекса Лютора, прежде чем она досталась Джесси Айзенбергу.

    Люси Гриффитс рассматривали на роль Чудо Женщины.

    Тимоти Далтон рассматривался на роль Альфреда.

    Галь Гадот – первая неамериканская актриса, исполнившая роль Чудо Женщины.

    Джейсону Момоа предлагали роль Думсдэя.

    Адам Драйвер, Пенн Бэджли и Эзра Миллер прослушивались на роль Найтвинга — союзника Бэтмена.
Скриншоты:


Время раздачи: 24/7 до 5 скачавших!
   
Торрент: Зарегистрирован [22 фев 2016, 20:25] Скачать торрент
Скачать торрент
О MediaGet
[ Размер 11.92 КБ / Просмотров 145 ]

Статус:
 
Приватный: Нет (DHT включён)
Размер: 283.33 МБ (297 091 729 байт)
   
Аватара пользователя

Администратор
Администратор
 
Раздал: 2.33 ПБ
Скачал: 1.02 ПБ
Ратио: 2.281
Сообщения: 3719
Зарегистрирован: 07 май 2010, 17:29
Medals: 1
Лучший релиз за месяц (1)
  • Личное сообщение
  • ICQ

  • Похожие торренты
    Ответы
    Просмотры
    Последнее сообщение

Вернуться в Трейлеры

Кто сейчас на конференции

Зарегистрированные пользователи: 132231, Flayer, sergeyk

Ресурс не предоставляет электронные версии произведений, а занимается лишь коллекционированием и каталогизацией ссылок, присылаемых и публикуемых на форуме нашими читателями. Если вы являетесь правообладателем какого-либо представленного материала и не желаете чтобы ссылка на него находилась в нашем каталоге, свяжитесь с нами и мы незамедлительно удалим её. Файлы для обмена на трекере предоставлены пользователями сайта, и администрация не несёт ответственности за их содержание. Просьба не заливать файлы, защищенные авторскими правами, а также файлы нелегального содержания!
cron