Девочка, покорившая время / Toki wo Kakeru Shoujo (Масааки Танигути / Masaaki Taniguchi) [2010г., Фантастика, драма, DVDRip] скачать торрент

Модератор: Модераторы аниме

  • Статистика раздачи
Размер: 1.38 ГБ   |  Зарегистрирован: 29 апр 2013, 20:52   |   .torrent скачан: 0 раз
Сидеров: 0  [ 0 байт/сек ]     Личеров: 0  [ 0 байт/сек ]  
Список файлов : Кто скачал : Раздают : Скачивают : Кто благодарил : История : Не раздающие : Запрашивали сидеров : Внешние трекеры 
  

Девочка, покорившая время / Toki wo Kakeru Shoujo (Масааки Танигути / Masaaki Taniguchi) [2010г., Фантастика, драма, DVDRip]

Сообщение дядя Женя » 29 апр 2013, 20:54

Девочка, покорившая время


Оригинальное название: Toki wo Kakeru Shoujo


Производство: Япония
Год выпуска: 2010г.
Жанр: Фантастика, драма
Продолжительность: 02:01:46
Перевод: субтитры (ext.)
Режиссер: Масааки Танигути
Актеры: Рииса Нака, Акиёси Накао, Наруми Ясуда, Масанобу Кацумура, Кандзи Исимара, Мунэтака Аоки







Описание: Акари (Рииса Нака, голос Макото в анимационной версии 2006 года), 18-летняя дочь героини оригинального романа, Кадзуко Ёсиямы (Наруми Ясуда). После того как Кадзуко попадает в автомобильную аварию, она впадает в кому. Акари отправляется в прошлое для того чтобы найти первую любовь своей матери, Кадзуо Фукамачи. Вместо этого она встречает Рёту (Акиёси Накао), который помогает ей в поисках.



Качество видео: DVDRip
Формат видео: AVI
Видео: XviD, 720x400, 16:9, 23.976, 1409 kbps
Аудио: JAP: AC3, 48 KHz, 192 kbps, 2.0/stereo
Cубтитры: ANG: перевод Skewed Subs (ext.)
RUS: перевод belforrrr (ext.)
JAP:(ext.)



General
Complete name : E:\Toki.wo.Kakeru.Shoujo.2010.JAP.DVDRip.XviD.AC3-zdzdz\Toki.wo.Kakeru.Shoujo.2010.JAP.DVDRip.XviD.AC3.zdzdz.avi
Format : AVI
Format/Info : Audio Video Interleave
File size : 1.37 GiB
Duration : 2h 1mn
Overall bit rate : 1 611 Kbps
Writing application : AVI-Mux GUI 1.17.8.3, Feb 16 201019:42:50
Writing library : VirtualDub build 32817/release

Video
ID : 0
Format : MPEG-4 Visual
Format profile : Advanced [email protected]
Format settings, BVOP : No
Format settings, QPel : No
Format settings, GMC : No warppoints
Format settings, Matrix : Custom
Codec ID : XVID
Codec ID/Hint : XviD
Duration : 2h 1mn
Bit rate : 1 409 Kbps
Width : 720 pixels
Height : 400 pixels
Display aspect ratio : 16:9
Frame rate : 23.976 fps
Color space : YUV
Chroma subsampling : 4:2:0
Bit depth : 8 bits
Scan type : Progressive
Compression mode : Lossy
Bits/(Pixel*Frame) : 0.204
Stream size : 1.20 GiB (87%)
Writing library : XviD 1.2.1 (UTC 2008-12-04)

Audio
ID : 1
Format : AC-3
Format/Info : Audio Coding 3
Mode extension : CM (complete main)
Codec ID : 2000
Duration : 2h 1mn
Bit rate mode : Constant
Bit rate : 192 Kbps
Channel(s) : 2 channels
Channel positions : Front: L R
Sampling rate : 48.0 KHz
Bit depth : 16 bits
Compression mode : Lossy
Stream size : 167 MiB (12%)
Alignment : Split accross interleaves
Interleave, duration : 42 ms (1.00 video frame)
Interleave, preload duration : 500 ms







   
Торрент: Зарегистрирован [29 апр 2013, 20:52] Скачать торрент
Скачать торрент
О MediaGet
[ Размер 14.81 КБ / Просмотров 90 ]

Статус:
 
Приватный: Нет (DHT включён)
Размер: 1.38 ГБ (1 481 828 886 байт)
   
Аватара пользователя
Вникающий пир
Вникающий пир
 
Раздал: 165.06 ГБ
Скачал: 81.41 ГБ
Ратио: 2.028
Сообщения: 97
Зарегистрирован: 07 май 2010, 16:51

  • Похожие торренты
    Ответы
    Просмотры
    Последнее сообщение

Вернуться в SD и DVDrip

Кто сейчас на конференции

Зарегистрированные пользователи: CaaaIIIKaaa

Ресурс не предоставляет электронные версии произведений, а занимается лишь коллекционированием и каталогизацией ссылок, присылаемых и публикуемых на форуме нашими читателями. Если вы являетесь правообладателем какого-либо представленного материала и не желаете чтобы ссылка на него находилась в нашем каталоге, свяжитесь с нами и мы незамедлительно удалим её. Файлы для обмена на трекере предоставлены пользователями сайта, и администрация не несёт ответственности за их содержание. Просьба не заливать файлы, защищенные авторскими правами, а также файлы нелегального содержания!
cron